Download Cobra Kai (2021) 720p HEVC HDRip [Hindi Dubbed + English] [Season 3] (EP 1 TO 10) x264 AAC ESub By Full4Movies torrent - GloDLS
Torrent Details For "Cobra Kai (2021) 720p HEVC HDRip [Hindi Dubbed + English] [Season 3] (EP 1 TO 10) x26..."

Cobra Kai (2021) 720p HEVC HDRip [Hindi Dubbed + English] [Season 3] (EP 1 TO 10) x26...

To download this torrent, you need a BitTorrent client: Vuze or BTGuard
Download this torrent
Download using Magnet Link

Health:
Seeds: 30
Leechers: 57
Completed: 36 
Last Checked: 13-01-2021 16:39:26

Uploader Reputation points : 4411
External: Torrent






Write a Review for the Uploader:   5   Say Thanks with one good review:
Share on Facebook


Details
Name:Cobra Kai (2021) 720p HEVC HDRip [Hindi Dubbed + English] [Season 3] (EP 1 TO 10) x26...
Description:


Visit Us = https://full4movies.xyz/



General
Complete name                  : Cobra Kai (2021) 720p HEVC HDRip [Hindi Dubbed + English] [Season 3] (EP 1 TO 10) x264 AAC ESub By Full4Movies.mkv
Format                         : Matroska
Format version                 : Version 4
File size                      : 816 MiB
Duration                       : 2 h 42 min
Overall bit rate               : 701 kb/s
Encoded date                   : UTC 2021-01-13 07:51:49
Writing application            : mkvmerge v8.0.0 ('Til The Day That I Die') 32bit
Writing library                : libebml v1.3.1 + libmatroska v1.4.2

Video
ID                             : 1
Format                         : HEVC
Format/Info                    : High Efficiency Video Coding
Format profile                 : [email protected]@Main
Codec ID                       : V_MPEGH/ISO/HEVC
Duration                       : 2 h 42 min
Bit rate                       : 611 kb/s
Width                          : 1 280 pixels
Height                         : 720 pixels
Display aspect ratio           : 16:9
Frame rate mode                : Constant
Frame rate                     : 23.976 (24000/1001) FPS
Color space                    : YUV
Chroma subsampling             : 4:2:0
Bit depth                      : 8 bits
Bits/(Pixel*Frame)             : 0.028
Stream size                    : 711 MiB (87%)
Writing library                : x265 2.1:[Windows][GCC 5.3.1][64 bit] 8bit
Default                        : Yes
Forced                         : No
Color range                    : Limited
Color primaries                : BT.709
Transfer characteristics       : BT.709
Matrix coefficients            : BT.709

Audio #1
ID                             : 2
Format                         : AAC LC SBR
Format/Info                    : Advanced Audio Codec Low Complexity with Spectral Band Replication
Commercial name                : HE-AAC
Format settings                : NBC
Codec ID                       : A_AAC-5
Duration                       : 2 h 42 min
Bit rate                       : 56.0 kb/s
Channel(s)                     : 2 channels
Channel layout                 : L R
Sampling rate                  : 48.0 kHz
Frame rate                     : 23.438 FPS (2048 SPF)
Compression mode               : Lossy
Stream size                    : 65.2 MiB (8%)
Language                       : Hindi
Default                        : Yes
Forced                         : Yes

Audio #2
ID                             : 3
Format                         : AAC LC SBR
Format/Info                    : Advanced Audio Codec Low Complexity with Spectral Band Replication
Commercial name                : HE-AAC
Format settings                : NBC
Codec ID                       : A_AAC-5
Duration                       : 2 h 42 min
Bit rate                       : 32.0 kb/s
Channel(s)                     : 2 channels
Channel layout                 : L R
Sampling rate                  : 48.0 kHz
Frame rate                     : 23.438 FPS (2048 SPF)
Compression mode               : Lossy
Stream size                    : 37.2 MiB (5%)
Language                       : English
Default                        : No
Forced                         : No

Text #1
ID                             : 4
Format                         : ASS
Codec ID                       : S_TEXT/ASS
Codec ID/Info                  : Advanced Sub Station Alpha
Duration                       : 2 h 39 min
Bit rate                       : 148 b/s
Count of elements              : 2468
Compression mode               : Lossless
Stream size                    : 174 KiB (0%)
Title                          : ESub
Language                       : English
Default                        : No
Forced                         : No

Screen Shoots
YouTube Video:
Category:TV
Language:Dubs/Dual Audio
Total Size:1.65 GB
Info Hash:0F3EB29F2D6E524F31A5D69BA735F01DCF1057A3
Added By:india4movie Verified Uploader
Date Added:2021-01-13 16:58:49
Torrent Status:Torrent Verified


Ratings:Not Yet Rated (Log in to rate it)


Tracker:
udp://tracker.opentrackr.org:1337/announce

This Torrent also has backup trackers
URLSeedersLeechersCompleted
udp://tracker.opentrackr.org:1337/announce566
udp://tracker.cyberia.is:6969/announce293
udp://9.rarbg.me:2980/announce222
udp://open.stealth.si:80/announce252
udp://exodus.desync.com:6969/announce153
udp://tracker.moeking.me:6969/announce210
udp://explodie.org:6969/announce000
udp://tracker.openbittorrent.com:80/announce566
udp://inferno.demonoid.is:3391/announce222
udp://tracker.torrent.eu.org:451/announce263
udp://ipv4.tracker.harry.lu:80/announce140
udp://tracker.uw0.xyz:6969/announce213
udp://tracker.coppersurfer.tk:6969/announce000
udp://exodus.desync.com:6969/announce153
udp://tracker.tiny-vps.com:6969/announce353


File List: 





Comments
No comments still posted