Download Descendants 3 2019 1080p WEB-DL DD 5 1 x264 [MW] torrent - GloDLS
Torrent Details For "Descendants 3 2019 1080p WEB-DL DD 5 1 x264 [MW]"

Descendants 3 2019 1080p WEB-DL DD 5 1 x264 [MW]

To download this torrent, you need a BitTorrent client: Vuze or BTGuard
Download this torrent
Download using Magnet Link

Health:
Seeds: 123
Leechers: 74
Completed: 468 
Last Checked: 14-08-2019 10:07:11

Uploader Reputation points : 6070
External: Torrent






Write a Review for the Uploader:   20   Say Thanks with one good review:
Share on Facebook


Details
Name:Descendants 3 2019 1080p WEB-DL DD 5 1 x264 [MW]
Description:




General
Format                                   : Matroska
Format version                           : Version 4
File size                                : 2.17 GiB
Duration                                 : 1 h 46 min
Overall bit rate                         : 2 916 kb/s

Video
ID                                       : 1
Format                                   : AVC
Format/Info                              : Advanced Video Codec
Format profile                           : [email protected]
Format settings                          : CABAC / 4 Ref Frames
Format settings, CABAC                   : Yes
Format settings, Reference frames        : 4 frames
Codec ID                                 : V_MPEG4/ISO/AVC
Duration                                 : 1 h 46 min
Bit rate                                 : 2 500 kb/s
Width                                    : 1 920 pixels
Height                                   : 1 080 pixels
Display aspect ratio                     : 16:9
Frame rate mode                          : Constant
Frame rate                               : 23.976 (24000/1001) FPS
Color space                              : YUV
Chroma subsampling                       : 4:2:0
Bit depth                                : 8 bits
Scan type                                : Progressive
Bits/(Pixel*Frame)                       : 0.050
Stream size                              : 1.88 GiB (87%)
Writing library                          : x264 core 157 r2935 545de2f

Audio
ID                                       : 2
Format                                   : AC-3
Format/Info                              : Audio Coding 3
Commercial name                          : Dolby Digital
Codec ID                                 : A_AC3
Duration                                 : 1 h 46 min
Bit rate mode                            : Constant
Bit rate                                 : 384 kb/s
Channel(s)                               : 6 channels
Channel layout                           : L R C LFE Ls Rs
Sampling rate                            : 48.0 kHz
Frame rate                               : 31.250 FPS (1536 SPF)
Bit depth                                : 16 bits
Compression mode                         : Lossy
Stream size                              : 292 MiB (13%)
Language                                 : English
Service kind                             : Complete Main
Default                                  : Yes
Forced                                   : No

Text
ID                                       : 3
Format                                   : UTF-8
Codec ID                                 : S_TEXT/UTF8
Codec ID/Info                            : UTF-8 Plain Text
Duration                                 : 1 h 46 min
Bit rate                                 : 66 b/s
Count of elements                        : 1945
Stream size                              : 52.0 KiB (0%)
Language                                 : English
Default                                  : Yes
Forced                                   : No


Click To View Image

https://pichub.site/image/hMi2u
https://pichub.site/image/hMtjR
https://pichub.site/image/hM8ks
https://pichub.site/image/hMAxB
https://pichub.site/image/hMBTY
https://pichub.site/image/hMgD6

YouTube Video:
Category:Movies
Language:English  English
Total Size:2.17 GB
Info Hash:5C7E423A78679D93365D3F694FA995AC5DEBF736
Added By:MovieFreak Verified UploaderMovie Pirate
Date Added:2019-08-13 21:08:21
Torrent Status:Torrent Verified


Ratings:Not Yet Rated (Log in to rate it)


Tracker:
udp://tracker.openbittorrent.com:80/announce

This Torrent also has backup trackers
URLSeedersLeechersCompleted
udp://tracker.openbittorrent.com:80/announce14810
udp://tracker.opentrackr.org:1337/announce10747
udp://tracker.coppersurfer.tk:6969/announce191374
udp://tracker.leechers-paradise.org:6969/announce151160
udp://tracker.internetwarriors.net:1337/announce8441
udp://tracker.opentrackr.org:1337/announce10747
udp://9.rarbg.to:2750/announce11758
udp://exodus.desync.com:6969/announce14739
udp://tracker1.itzmx.com:8080/announce000
udp://explodie.org:6969/announce7334
http://tracker3.itzmx.com:6961/announce8434
udp://tracker.port443.xyz:6969/announce000
udp://tracker.torrent.eu.org:451/announce7324


File List: 





Comments
No comments still posted