Download Enigma - Enigma Trilogy (1998) 24-88 2] torrent - GloDLS
Torrent Details For "Enigma - Enigma Trilogy (1998) 24-88 2]"

Enigma - Enigma Trilogy (1998) 24-88 2]

To download this torrent, you need a BitTorrent client: Vuze or BTGuard
Download this torrent
Download using Magnet Link

Health:
Seeds: 0
Leechers: 0
Completed:
Last Checked: 20-08-2019 15:48:42

Uploader Reputation points : 618
External: Torrent






Write a Review for the Uploader:   5   Say Thanks with one good review:
Share on Facebook


Details
Name:Enigma - Enigma Trilogy (1998) 24-88 2]
Description:


Quality-Lossless
Release-1998    (First 3 Studio Albums: 1990-1993-1993)
Duration-02:09:57
File Size-2.43 GB
Genre-New Age
Cover Size-1400px

CD 1
?----------------------------------------------------------------------------------------------
Analyzed: Enigma Trilogy /  Artist: Enigma
----------------------------------------------------------------------------------------------
DR Peak RMS Duration Title [codec]
----------------------------------------------------------------------------------------------
DR12 -11.66 dB -28.47 dB 2:20 01 - The Voice Of Enigma [flac]
DR14 -0.18 dB -17.61 dB 11:42 02 - Principles Of Lust (A: Sadness, B: Find Love, C: Sadness Reprise) [flac]
DR14 -0.00 dB -18.82 dB 4:29 03 - Callas Went Away [flac]
DR12 -0.21 dB -16.37 dB 5:00 04 - Mea Culpa [flac]
DR12 -7.15 dB -24.34 dB 1:40 05 - The Voice And The Snake [flac]
DR13 -0.05 dB -18.62 dB 4:21 06 - Knocking On Forbidden Doors [flac]
DR13 -0.17 dB -18.19 dB 10:35 07 - Back To The Rivers Of Belief (A: Way To Eternity, b: Hallelujah, C: The Rivers Of Believe) [flac]
----------------------------------------------------------------------------------------------
Number of files:    7
Official DR value:  DR13

Sampling rate: 88200 Hz
Average bitrate: 2233kbs
Bits per sample: 32 bit

CD 2
?----------------------------------------------------------------------------------------------
Analyzed: Enigma Trilogy /  Artist: Enigma
----------------------------------------------------------------------------------------------
DR Peak RMS Duration Title [codec]
----------------------------------------------------------------------------------------------
DR10 -6.71 dB -24.65 dB 2:14 01 - Second Chapter [flac]
DR12 -0.08 dB -16.29 dB 7:13 02 - The Eyes Of Truth [flac]
DR12 -0.08 dB -15.48 dB 4:15 03 - Return To Innocence [flac]
DR12 -0.06 dB -15.15 dB 8:51 04 - I Love You ... I'll Kill You [flac]
DR13 -0.06 dB -18.61 dB 6:08 05 - Silent Warrior [flac]
DR11 -6.14 dB -23.01 dB 2:46 06 - The Dream Of The Dolphin [flac]
DR12 -0.13 dB -16.38 dB 5:20 07 - Age Of Loneliness (Carly's Song) [flac]
DR13 -0.09 dB -16.86 dB 4:53 08 - Out From The Deep [flac]
DR12 -3.93 dB -20.41 dB 2:24 09 - The CROSS Of Changes [flac]
----------------------------------------------------------------------------------------------
Number of files:    9
Official DR value:  DR12

Sampling rate: 88200 Hz
Average bitrate: 2487kbs
Bits per sample: 32 bit

CD3
?----------------------------------------------------------------------------------------------
Analyzed: Enigma Trilogy /  Artist: Enigma
----------------------------------------------------------------------------------------------
DR Peak RMS Duration Title [codec]
----------------------------------------------------------------------------------------------
DR12 -4.56 dB -21.92 dB 1:56 01 - Le Roi Est Mort, Vive Le Roi! [flac]
DR10 -0.01 dB -12.90 dB 5:46 02 - Morphing Thru Time [flac]
DR12 -9.14 dB -23.43 dB 0:19 03 - Third Of Its Kind [flac]
DR9 -0.08 dB -12.86 dB 5:00 04 - Beyond The Invisible [flac]
DR10 -0.01 dB -12.74 dB 4:58 05 - Why! ... [flac]
DR12 -0.08 dB -15.31 dB 4:20 06 - Shadows In Silence [flac]
DR11 -0.06 dB -13.31 dB 5:05 07 - The Child In Us [flac]
DR10 -0.02 dB -14.06 dB 4:25 08 - T.N.T. For The Brain [flac]
DR13 -0.00 dB -16.50 dB 3:25 09 - Almost Full Moon [flac]
DR10 -0.06 dB -12.02 dB 3:37 10 - The Roundabout [flac]
DR11 -0.09 dB -13.92 dB 4:54 11 - Prism Of Life [flac]
DR11 -6.40 dB -23.89 dB 1:39 12 - Odyssey Of The Mind [flac]
----------------------------------------------------------------------------------------------
Number of files:    12
Official DR value:  DR11

Sampling rate: 88200 Hz
Average bitrate: 2568kbs
Bits per sample: 32 bit
YouTube Video:
Category:FLAC
Language:Aucune/N/D
Total Size:2.26 GB
Info Hash:22AA3D76A0B561641730AE0FBD67C068E6BCF7D5
Added By:was95was Verified UploaderMusic Lover
Date Added:2019-08-20 22:48:38
Torrent Status:Torrent Verified


Ratings:Not Yet Rated (Log in to rate it)


Tracker:
udp://tracker.piratepublic.com:1337/announce

This Torrent also has backup trackers
URLSeedersLeechersCompleted
udp://tracker.piratepublic.com:1337/announce000
udp://tracker.pirateparty.gr:6969/announce000
udp://tracker.coppersurfer.tk:6969/announce000
udp://tracker.leechers-paradise.org:6969/announce000
udp://9.rarbg.com:2710/announce000
http://p4p.arenabg.com:1337/announce000
http://explodie.org:6969/announce000
udp://tracker.opentrackr.org:1337/announce000
udp://exodus.desync.com:6969/announce000
udp://tracker.leechers-paradise.org:6969/announce000
udp://tracker.zer0day.to:1337/announce000
udp://open.demonii.si:1337/announce000
udp://exodus.desync.com:6969/announce000
udp://tracker.iamhansen.xyz:2000/announce000


File List: 





Comments
No comments still posted