Download Enigma - Voyageur (2003) [24-88 2]-was95 torrent - GloDLS
Torrent Details For "Enigma - Voyageur (2003) [24-88 2]-was95"

Enigma - Voyageur (2003) [24-88 2]-was95

To download this torrent, you need a BitTorrent client: Vuze or BTGuard
Download this torrent
Download using Magnet Link

Health:
Seeds: 0
Leechers: 0
Completed:
Last Checked: 23-08-2019 07:14:41

Uploader Reputation points : 618
External: Torrent






Write a Review for the Uploader:   5   Say Thanks with one good review:
Share on Facebook


Details
Name:Enigma - Voyageur (2003) [24-88 2]-was95
Description:


Quality-Lossless
Release-2003
Duration-00:47:16
File Size-901 MB
Genre-New Age
Cover Size-1400px

?----------------------------------------------------------------------------------------------
Analyzed: Voyageur /  Artist: Enigma
----------------------------------------------------------------------------------------------
DR Peak RMS Duration Title [codec]
----------------------------------------------------------------------------------------------
DR8 -0.01 dB -11.08 dB 4:11 01 - From East To West [flac]
DR7 -0.03 dB -9.76 dB 4:36 02 - Voyageur [flac]
DR8 -0.00 dB -10.83 dB 4:23 03 - Incognito [flac]
DR11 -0.00 dB -15.07 dB 7:00 04 - Page Of Cups [flac]
DR8 -0.04 dB -11.06 dB 4:29 05 - Boum-Boum [flac]
DR7 -0.03 dB -13.17 dB 2:16 06 - Total Eclipse Of The Moon [flac]
DR6 -0.00 dB -9.03 dB 3:43 07 - Look Of Today [flac]
DR10 -0.01 dB -13.18 dB 5:34 08 - In The Shadow, In The Light [flac]
DR12 -0.08 dB -17.83 dB 2:14 09 - Weightless [flac]
DR12 -0.09 dB -15.72 dB 3:00 10 - The Piano [flac]
DR6 -0.00 dB -11.24 dB 5:46 11 - Following The Sun [flac]
----------------------------------------------------------------------------------------------
Number of files:    11
Official DR value:  DR9

Sampling rate: 88200 Hz
Average bitrate: 2535kbs
Bits per sample: 24 bit
YouTube Video:
Category:FLAC
Language:Aucune/N/D
Total Size:859.49 MB
Info Hash:7BA7B832FFB7F2A224D68EE76662D27FF626B15F
Added By:was95was Verified UploaderMusic Lover
Date Added:2019-08-23 14:14:37
Torrent Status:Torrent Verified


Ratings:Not Yet Rated (Log in to rate it)


Tracker:
udp://tracker.piratepublic.com:1337/announce

This Torrent also has backup trackers
URLSeedersLeechersCompleted
udp://tracker.piratepublic.com:1337/announce000
udp://tracker.pirateparty.gr:6969/announce000
udp://tracker.coppersurfer.tk:6969/announce000
udp://tracker.leechers-paradise.org:6969/announce000
udp://9.rarbg.com:2710/announce000
http://p4p.arenabg.com:1337/announce000
http://explodie.org:6969/announce000
udp://tracker.opentrackr.org:1337/announce000
udp://exodus.desync.com:6969/announce000
udp://tracker.leechers-paradise.org:6969/announce000
udp://tracker.zer0day.to:1337/announce000
udp://open.demonii.si:1337/announce000
udp://exodus.desync.com:6969/announce000
udp://tracker.iamhansen.xyz:2000/announce000


File List: 





Comments
No comments still posted