Download Fargo S01 1080p BluRay DD5 1 With Commentary x265-POIASD torrent - GloDLS
Torrent Details For "Fargo S01 1080p BluRay DD5 1 With Commentary x265-POIASD"

Fargo S01 1080p BluRay DD5 1 With Commentary x265-POIASD

To download this torrent, you need a BitTorrent client: Vuze or BTGuard
Download this torrent
Download using Magnet Link

Health:
Seeds: 58
Leechers: 49
Completed: 188 
Last Checked: 01-08-2020 09:54:05

Uploader Reputation points : 493
External: Torrent






Write a Review for the Uploader:   0   Say Thanks with one good review:
Share on Facebook
TV Info

Fargo

An american black comedy–crime drama anthology television series created and primarily written by Noah Hawley. The show is inspired by the 1996 film of the same name written and directed by the Coen brothers, who serve as executive producers on the series. Each season follows an anthology format, being set in a different era along with a different story, cast and set of characters.



Details
Name:Fargo S01 1080p BluRay DD5 1 With Commentary x265-POIASD
Description:
Source: Fargo.S01.2014.BluRay.1080p.AVC.DTS-HD.MA.5.1.REMUX-FraMeSToR (113GB)
Encode: Fargo.S01.1080p.BluRay.DD5.1.With.Commentary.x265-POIASD (11.9GB)

Greetz iJP, roy, Kiiroi, no5tyle & WalkerServers
For great seedboxes, check out WalkerServers

Notes:
Encoded with x265 8bit
Audio is DD5.1 Surround (AC3)
Few episodes have commentary
Contains text-based English Subtitles (muxed in)

Screens:


Mediainfo:

Code:

General
Unique ID                                : 145964278569888211823903393401389214832 (0x6DCFB28EC2DCE6C373DD3AE85E986C70)
Complete name                            : Fargo.S01E01.1080p.BluRay.DD5.1.x265-POIASD.mkv
Format                                   : Matroska
Format version                           : Version 4
File size                                : 1.53 GiB
Duration                                 : 1 h 9 min
Overall bit rate                         : 3 143 kb/s
Encoded date                             : UTC 2020-07-31 15:27:38
Writing application                      : mkvmerge v47.0.0 ('Black Flag') 64-bit
Writing library                          : libebml v1.3.10 + libmatroska v1.5.2 / Lavf58.20.100

Video
ID                                       : 1
Format                                   : HEVC
Format/Info                              : High Efficiency Video Coding
Format profile                           : [email protected]@Main
Codec ID                                 : V_MPEGH/ISO/HEVC
Duration                                 : 1 h 9 min
Bit rate                                 : 2 660 kb/s
Width                                    : 1 920 pixels
Height                                   : 1 080 pixels
Display aspect ratio                     : 16:9
Frame rate mode                          : Variable
Frame rate                               : 23.976 FPS
Color space                              : YUV
Chroma subsampling                       : 4:2:0
Bit depth                                : 8 bits
Bits/(Pixel*Frame)                       : 0.054
Stream size                              : 1.30 GiB (85%)
Writing library                          : x265 2.9:[Linux][GCC 8.2.0][64 bit] 8bit+10bit+12bit
Encoding settings                        : cpuid=1111039 / frame-threads=3 / wpp / no-pmode / no-pme / no-psnr / no-ssim / log-level=2 / input-csp=1 / input-res=1920x1080 / interlace=0 / total-frames=0 / level-idc=0 / high-tier=1 / uhd-bd=0 / ref=3 / no-allow-non-conformance / no-repeat-headers / annexb / no-aud / no-hrd / info / hash=0 / no-temporal-layers / open-gop / min-keyint=23 / keyint=250 / gop-lookahead=0 / bframes=4 / b-adapt=2 / b-pyramid / bframe-bias=0 / rc-lookahead=20 / lookahead-slices=6 / scenecut=40 / radl=0 / no-intra-refresh / ctu=64 / min-cu-size=8 / no-rect / no-amp / max-tu-size=32 / tu-inter-depth=1 / tu-intra-depth=1 / limit-tu=0 / rdoq-level=0 / dynamic-rd=0.00 / no-ssim-rd / signhide / no-tskip / nr-intra=0 / nr-inter=0 / no-constrained-intra / strong-intra-smoothing / max-merge=2 / limit-refs=3 / no-limit-modes / me=1 / subme=2 / merange=57 / temporal-mvp / weightp / no-weightb / no-analyze-src-pics / deblock=0:0 / sao / no-sao-non-deblock / rd=3 / no-early-skip / rskip / no-fast-intra / no-tskip-fast / no-cu-lossless / no-b-intra / no-splitrd-skip / rdpenalty=0 / psy-rd=2.00 / psy-rdoq=0.00 / no-rd-refine / no-lossless / cbqpoffs=0 / crqpoffs=0 / rc=crf / crf=23.0 / qcomp=0.60 / qpstep=4 / stats-write=0 / stats-read=0 / ipratio=1.40 / pbratio=1.30 / aq-mode=1 / aq-strength=1.00 / cutree / zone-count=0 / no-strict-cbr / qg-size=32 / no-rc-grain / qpmax=69 / qpmin=0 / no-const-vbv / sar=1 / overscan=0 / videoformat=5 / range=0 / colorprim=2 / transfer=2 / colormatrix=2 / chromaloc=0 / display-window=0 / max-cll=0,0 / min-luma=0 / max-luma=255 / log2-max-poc-lsb=8 / vui-timing-info / vui-hrd-info / slices=1 / no-opt-qp-pps / no-opt-ref-list-length-pps / no-multi-pass-opt-rps / scenecut-bias=0.05 / no-opt-cu-delta-qp / no-aq-motion / no-hdr / no-hdr-opt / no-dhdr10-opt / no-idr-recovery-sei / analysis-reuse-level=5 / scale-factor=0 / refine-intra=0 / refine-inter=0 / refine-mv=0 / no-limit-sao / ctu-info=0 / no-lowpass-dct / refine-mv-type=0 / copy-pic=1 / max-ausize-factor=1.0 / no-dynamic-refine / no-single-sei
Language                                 : English
Default                                  : Yes
Forced                                   : No

Audio #1
ID                                       : 2
Format                                   : AC-3
Format/Info                              : Audio Coding 3
Commercial name                          : Dolby Digital
Codec ID                                 : A_AC3
Duration                                 : 1 h 9 min
Bit rate mode                            : Constant
Bit rate                                 : 384 kb/s
Channel(s)                               : 6 channels
Channel layout                           : L R C LFE Ls Rs
Sampling rate                            : 48.0 kHz
Frame rate                               : 31.250 FPS (1536 SPF)
Compression mode                         : Lossy
Delay relative to video                  : 16 ms
Stream size                              : 192 MiB (12%)
Title                                    : Dolby Digital 5.1 (Surround)
Writing library                          : Lavc58.35.100 ac3
Language                                 : English
Service kind                             : Complete Main
Default                                  : Yes
Forced                                   : No

Audio #2
ID                                       : 3
Format                                   : AAC LC
Format/Info                              : Advanced Audio Codec Low Complexity
Codec ID                                 : A_AAC-2
Duration                                 : 1 h 9 min
Bit rate                                 : 96.0 kb/s
Channel(s)                               : 2 channels
Channel layout                           : L R
Sampling rate                            : 48.0 kHz
Frame rate                               : 46.875 FPS (1024 SPF)
Compression mode                         : Lossy
Stream size                              : 48.1 MiB (3%)
Title                                    : Commentary
Writing library                          : Lavc58.35.100 aac
Language                                 : English
Default                                  : No
Forced                                   : No

Text
ID                                       : 4
Format                                   : UTF-8
Codec ID                                 : S_TEXT/UTF8
Codec ID/Info                            : UTF-8 Plain Text
Duration                                 : 1 h 7 min
Bit rate                                 : 59 b/s
Count of elements                        : 1042
Stream size                              : 29.3 KiB (0%)
Language                                 : English
Default                                  : Yes
Forced                                   : No

Menu
00:00:00.000                             : :Chapter 01
00:02:33.361                             : :Chapter 02
00:07:10.596                             : :Chapter 03
00:10:17.408                             : :Chapter 04
00:16:44.837                             : :Chapter 05
00:21:23.282                             : :Chapter 06
00:23:53.098                             : :Chapter 07
00:28:51.563                             : :Chapter 08
00:33:03.231                             : :Chapter 09
00:35:39.345                             : :Chapter 10
00:41:04.003                             : :Chapter 11
00:44:46.517                             : :Chapter 12
00:47:14.206                             : :Chapter 13
00:53:28.205                             : :Chapter 14
00:59:19.389                             : :Chapter 15
01:05:22.126                             : :Chapter 16

YouTube Video:
Category:TV
Language:English  English
Total Size:11.95 GB
Info Hash:A7C397E04DD37E3D53A01E0513FADA525FCF5CFE
Added By:lumi265 Verified UploaderTV Uploader
Date Added:2020-08-01 02:07:39
Torrent Status:Torrent Verified


Ratings:Not Yet Rated (Log in to rate it)


Tracker:
udp://tracker.coppersurfer.tk:6969/announce

This Torrent also has backup trackers
URLSeedersLeechersCompleted
udp://tracker.coppersurfer.tk:6969/announce212161
udp://tracker.leechers-paradise.org:6969/announce000
udp://retracker.lanta-net.ru:2710/announce221672
https://tracker.opentracker.se:443/announce000
udp://tracker.internetwarriors.net:1337/announce151255


File List: 





Comments
No comments still posted