Download Fino all inferno-Inferno (1999) ITA-ENG Ac3 5 1 BDRip 1080p H264 [ArMor] torrent - GloDLS
Login
Username:
Password:
Remember Me:
[Signup]
[Recover Account]
Friends
Angie Torrents
Friendly Site

Pirateiro
Friendly site

Free Courses Online
Friendly site

ETTV
Friendly site

KaranPC
Friendly site

P2PDL.com
Friendly site

OneHack
Friendly site

IGGGames
Friendly site

Torrent Details For "Fino all inferno-Inferno (1999) ITA-ENG Ac3 5 1 BDRip 1080p H264 [ArMor]"

Fino all inferno-Inferno (1999) ITA-ENG Ac3 5 1 BDRip 1080p H264 [ArMor]

To download this torrent, you need a BitTorrent client: Vuze or BTGuard
Download this torrent
Download using Magnet Link

Health:
Seeds: 0
Leechers: 0
Completed:
Last Checked: 21-10-2020 22:52:35

Uploader Reputation points : 976
External: Torrent






Write a Review for the Uploader:   0   Say Thanks with one good review:
Share on Facebook


Details
Name:Fino all inferno-Inferno (1999) ITA-ENG Ac3 5 1 BDRip 1080p H264 [ArMor]
Description:







Regista: John G. Avildsen
Genere: Azione
Anno: 1999
Paese: USA
Durata: 99 min
Distribuzione: CDI-BUENA VISTA



Jean-Claude Van Damme, Pat Morita, Danny Trejo, Gabrielle Fitzpatrick, Larry Drake, Vincent Schiavelli, David Shark Fralick, Jonathan Avildsen, Jaime Pressly, Bill Erwin, Ford Rainey, Kevin West, Priscilla Pointer, Robert Symonds, Paul Koslo, Brett Harrelson, Jeff Kober



Una famiglia e una banda di spacciatori spadroneggiano su una cittadina nel deserto. Uno straniero segnato da un dolore personale arriva lì e provoca una faida tra le due gang. Il protagonista è un ex soldato speciale che non ha superato i sensi di colpa per la morte di un amico di cui vuole aiutare la vedova. Viaggia in moto e usa una 45 automatica ma ha grinta da vendere come il modello Clint Eastwood.



A man (JCVD) drives out in the desert where some men steal his motorcycle and leave him for dead. He survives and no longer thinks of suicide as he now has a purpose in life: revenge and getting his bike back.












General
Unique ID                                : 200397173794696440683960842169015750348 (0x96C3177EC6508C17815DD3876C324ECC)
Complete name                            : Fino all.inferno-Inferno (1999) ITA-ENG Ac3 5.1 BDRip 1080p H264 [ArMor].mkv
Format                                   : Matroska
Format version                           : Version 4
File size                                : 6.48 GiB
Duration                                 : 1 h 35 min
Overall bit rate                         : 9 759 kb/s
Encoded date                             : UTC 2020-10-20 17:00:53
Writing application                      : mkvmerge v15.0.0 ('Duel with the Devil') 64-bit
Writing library                          : libebml v1.3.5 + libmatroska v1.4.5 / Lavf58.29.100

Video
ID                                       : 1
Format                                   : AVC
Format/Info                              : Advanced Video Codec
Format profile                           : [email protected]
Format settings                          : CABAC / 4 Ref Frames
Format settings, CABAC                   : Yes
Format settings, Reference frames        : 4 frames
Codec ID                                 : V_MPEG4/ISO/AVC
Duration                                 : 1 h 34 min
Bit rate                                 : 9 121 kb/s
Width                                    : 1 920 pixels
Height                                   : 1 080 pixels
Display aspect ratio                     : 16:9
Frame rate mode                          : Constant
Frame rate                               : 24.000 FPS
Color space                              : YUV
Chroma subsampling                       : 4:2:0
Bit depth                                : 8 bits
Scan type                                : Progressive
Bits/(Pixel*Frame)                       : 0.183
Stream size                              : 6.05 GiB (93%)
Writing library                          : x264 core 157 r2935 545de2f
Encoding settings                        : cabac=1 / ref=2 / deblock=1:0:0 / analyse=0x1:0x111 / me=hex / subme=6 / psy=1 / psy_rd=1.00:0.00 / mixed_ref=1 / me_range=16 / chroma_me=1 / trellis=1 / 8x8dct=0 / cqm=0 / deadzone=21,11 / fast_pskip=1 / chroma_qp_offset=-2 / threads=18 / lookahead_threads=3 / sliced_threads=0 / nr=0 / decimate=1 / interlaced=0 / bluray_compat=0 / constrained_intra=0 / bframes=3 / b_pyramid=2 / b_adapt=1 / b_bias=0 / direct=1 / weightb=1 / open_gop=0 / weightp=1 / keyint=240 / keyint_min=24 / scenecut=40 / intra_refresh=0 / rc_lookahead=30 / rc=crf / mbtree=1 / crf=20.0 / qcomp=0.60 / qpmin=0 / qpmax=69 / qpstep=4 / vbv_maxrate=20000 / vbv_bufsize=25000 / crf_max=0.0 / nal_hrd=none / filler=0 / ip_ratio=1.40 / aq=1:1.00
Default                                  : Yes
Forced                                   : No
Color range                              : Limited
Color primaries                          : BT.709
Transfer characteristics                 : BT.709
Matrix coefficients                      : BT.709

Audio #1
ID                                       : 2
Format                                   : AC-3
Format/Info                              : Audio Coding 3
Commercial name                          : Dolby Digital
Codec ID                                 : A_AC3
Duration                                 : 1 h 35 min
Bit rate mode                            : Constant
Bit rate                                 : 448 kb/s
Channel(s)                               : 6 channels
Channel layout                           : L R C LFE Ls Rs
Sampling rate                            : 48.0 kHz
Frame rate                               : 31.250 FPS (1536 SPF)
Compression mode                         : Lossy
Stream size                              : 304 MiB (5%)
Title                                    : DVD
Language                                 : Italian
Service kind                             : Complete Main
Default                                  : Yes
Forced                                   : No

Audio #2
ID                                       : 3
Format                                   : AC-3
Format/Info                              : Audio Coding 3
Commercial name                          : Dolby Digital
Codec ID                                 : A_AC3
Duration                                 : 1 h 34 min
Bit rate mode                            : Constant
Bit rate                                 : 192 kb/s
Channel(s)                               : 2 channels
Channel layout                           : L R
Sampling rate                            : 48.0 kHz
Frame rate                               : 31.250 FPS (1536 SPF)
Compression mode                         : Lossy
Stream size                              : 130 MiB (2%)
Title                                    : DTS
Language                                 : English
Service kind                             : Complete Main
Default                                  : No
Forced                                   : No


YouTube Video:
Category:Movies
Language:Italian  Italian
Total Size:6.48 GB
Info Hash:99BA3943D0B37AF1092A3A72D70002973F64E97F
Added By:ArMor1 Verified Uploader
Date Added:2020-10-22 05:52:33
Torrent Status:Torrent Verified


Ratings:Not Yet Rated (Log in to rate it)


Tracker:
udp://tracker.coppersurfer.tk:6969/announce

This Torrent also has backup trackers
URLSeedersLeechersCompleted
udp://tracker.coppersurfer.tk:6969/announce000
udp://tracker.opentrackr.org:1337/announce000
udp://tracker.leechers-paradise.org:6969/announce000
udp://tracker.zer0day.to:1337/announce000
udp://eddie4.nl:6969/announce000
udp://9.rarbg.me:2790/announce000
udp://9.rarbg.to:2730/announce000
udp://9.rarbg.com:2710/announce000
udp://tracker.pirateparty.gr:6969/announce000
udp://p4p.arenabg.com:1337/announce000
http://ipv4.tracker.harry.lu/announce000
http://ipv4.tracker.harry.lu:80/announce000
http://t.nyaatracker.com/announce000
http://t.nyaatracker.com:80/announce000
http://tracker.torrentyorg.pl:80/announce000


File List: 





Comments
No comments still posted