Download Formula E 2018-19 Round08 Paris 1080i EuroSport 1 HD Full Weekend Eng-Rus torrent - GloDLS
Torrent Details For "Formula E 2018-19 Round08 Paris 1080i EuroSport 1 HD Full Weekend Eng-Rus"

Formula E 2018-19 Round08 Paris 1080i EuroSport 1 HD Full Weekend Eng-Rus

To download this torrent, you need a BitTorrent client: Vuze or BTGuard
Download this torrent
Download using Magnet Link

Health:
Seeds: 5
Leechers: 0
Completed: 37 
Last Checked: 15-06-2019 05:55:27

Uploader Reputation points : 541
External: Torrent






Write a Review for the Uploader:   10   Say Thanks with one good review:
Share on Facebook


Details
Name:Formula E 2018-19 Round08 Paris 1080i EuroSport 1 HD Full Weekend Eng-Rus
Description:




Formula E Info

Torrent includes Race Preview, Qualifying & The Race

Dual audio English/Russian included

MEDIA INFO TAKEN FROM THE MAIN RACE

General
ID                                       : 9 (0x9)
Format                                   : MPEG-TS
File size                                : 5.26 GiB
Duration                                 : 1h 3mn
Overall bit rate mode                    : Variable
Overall bit rate                         : 11.9 Mbps

Video
ID                                       : 8001 (0x1F41)
Menu ID                                  : 26001 (0x6591)
Format                                   : AVC
Format/Info                              : Advanced Video Codec
Format profile                           : [email protected]
Format settings, CABAC                   : Yes
Format settings, ReFrames                : 4 frames
Codec ID                                 : 27
Duration                                 : 20mn 3s
Bit rate                                 : 10.9 Mbps
Width                                    : 1 920 pixels
Height                                   : 1 080 pixels
Display aspect ratio                     : 16:9
Frame rate                               : 25.000 fps
Standard                                 : Component
Color space                              : YUV
Chroma subsampling                       : 4:2:0
Bit depth                                : 8 bits
Scan type                                : Interlaced
Scan type, store method                  : Separated fields
Scan order                               : Top Field First
Bits/(Pixel*Frame)                       : 0.210
Stream size                              : 1.53 GiB (29%)
Color range                              : Limited
Color primaries                          : BT.709
Transfer characteristics                 : BT.709
Matrix coefficients                      : BT.709

Audio #1
ID                                       : 8002 (0x1F42)
Menu ID                                  : 26001 (0x6591)
Format                                   : MPEG Audio
Format version                           : Version 1
Format profile                           : Layer 2
Codec ID                                 : 4
Duration                                 : 1h 13mn
Bit rate mode                            : Constant
Bit rate                                 : 192 Kbps
Channel(s)                               : 2 channels
Sampling rate                            : 48.0 KHz
Compression mode                         : Lossy
Delay relative to video                  : 8ms
Stream size                              : 101 MiB (2%)
Language                                 : Russian

Audio #2
ID                                       : 8003 (0x1F43)
Menu ID                                  : 26001 (0x6591)
Format                                   : MPEG Audio
Format version                           : Version 1
Format profile                           : Layer 2
Codec ID                                 : 4
Duration                                 : 1h 13mn
Bit rate mode                            : Constant
Bit rate                                 : 192 Kbps
Channel(s)                               : 2 channels
Sampling rate                            : 48.0 KHz
Compression mode                         : Lossy
Delay relative to video                  : 8ms
Stream size                              : 101 MiB (2%)
Language                                 : English





YouTube Video:
Category:Sports
Language:English  English
Total Size:11.37 GB
Info Hash:DE3C18ABFF0B10AAAFC31FE8734DB86F97CA9F1A
Added By:Banhammer Movie Pirate
Date Added:28-04-2019 08:20:09
Torrent Status:Torrent Verified by SaM Super Administrator on 28th April, 2019


Ratings:Not Yet Rated (Log in to rate it)


Tracker:
udp://tracker.pirateparty.gr:6969/announce

This Torrent also has backup trackers
URLSeedersLeechersCompleted
udp://tracker.pirateparty.gr:6969/announce1014
udp://exodus.desync.com:6969/announce107
udp://tracker.coppersurfer.tk:6969/announce1014
udp://tracker.iamhansen.xyz:2000/announce100
udp://tracker.opentrackr.org:1337/announce102
udp://open.demonii.si:1337/announce000


File List: 





Comments
No comments still posted