Download Formula1 2019 Spanish Grand Prix The Story So Far SkyF1HD 1080p torrent - GloDLS
Torrent Details For "Formula1 2019 Spanish Grand Prix The Story So Far SkyF1HD 1080p"

Formula1 2019 Spanish Grand Prix The Story So Far SkyF1HD 1080p

To download this torrent, you need a BitTorrent client: Vuze or BTGuard
Download this torrent
Download using Magnet Link

Health:
Seeds: 0
Leechers: 0
Completed:
Last Checked: 20-09-2019 09:43:52

Uploader Reputation points : 739
External: Torrent






Write a Review for the Uploader:   10   Say Thanks with one good review:
Share on Facebook


Details
Name:Formula1 2019 Spanish Grand Prix The Story So Far SkyF1HD 1080p
Description:
Formula1.2019.Spanish.Grand.Prix.The.Story.So.Far.SkyF1HD.1080p





F1 Info



F1:Formula1:SpanishRace

Thanks to the original Rippers/Encoders

Format                                   : Matroska
Format version                           : Version 4 / Version 2
File size                                : 1.01 GiB
Duration                                 : 27mn 51s
Overall bit rate                         : 5 185 Kbps
Encoded date                             : UTC 2019-05-10 17:29:09
Writing application                      : mkvmerge v31.0.0 ('Dolores In A Shoestand') 64-bit
Writing library                          : libebml v1.3.6 + libmatroska v1.4.9

Video
ID                                       : 1
Format                                   : AVC
Format/Info                              : Advanced Video Codec
Format profile                           : [email protected]
Format settings, CABAC                   : Yes
Format settings, ReFrames                : 4 frames
Codec ID                                 : V_MPEG4/ISO/AVC
Duration                                 : 27mn 51s
Bit rate                                 : 5 135 Kbps
Width                                    : 1 920 pixels
Height                                   : 1 080 pixels
Display aspect ratio                     : 16:9
Frame rate mode                          : Constant
Frame rate                               : 25.000 fps
Color space                              : YUV
Chroma subsampling                       : 4:2:0
Bit depth                                : 8 bits
Scan type                                : Progressive
Bits/(Pixel*Frame)                       : 0.099
Stream size                              : 1 023 MiB (99%)
Default                                  : Yes
Forced                                   : No

Audio
ID                                       : 2
Format                                   : AAC
Format/Info                              : Advanced Audio Codec
Format profile                           : LC
Codec ID                                 : A_AAC
Duration                                 : 27mn 51s
Bit rate                                 : 48.0 Kbps
Channel(s)                               : 2 channels
Channel positions                        : Front: L R
Sampling rate                            : 48.0 KHz
Frame rate                               : 46.875 fps (1024 spf)
Compression mode                         : Lossy
Delay relative to video                  : -13ms
Stream size                              : 9.57 MiB (1%)
Language                                 : English
Default                                  : Yes
Forced                                   : No
YouTube Video:
Category:Sports
Language:English  English
Total Size:1.01 GB
Info Hash:230FCDCCF3142CE586DE8A40AA55DCAE5DA289A0
Added By:Banhammer VIPMovie Pirate
Date Added:2019-05-10 20:04:52
Torrent Status:Torrent Verified by SaM on 10th May, 2019


Ratings:Not Yet Rated (Log in to rate it)


Tracker:
udp://tracker.pirateparty.gr:6969/announce

This Torrent also has backup trackers
URLSeedersLeechersCompleted
udp://tracker.pirateparty.gr:6969/announce000
udp://exodus.desync.com:6969/announce000
udp://tracker.coppersurfer.tk:6969/announce000
udp://tracker.iamhansen.xyz:2000/announce000
udp://tracker.opentrackr.org:1337/announce000
udp://open.demonii.si:1337/announce000


File List: 





Comments
No comments still posted