Download Formula1 The Inside Line 2019 E11 Azerbaijan Grand Prix Preview SkyF1HD 1080P torrent - GloDLS
Torrent Details For "Formula1 The Inside Line 2019 E11 Azerbaijan Grand Prix Preview SkyF1HD 1080P"

Formula1 The Inside Line 2019 E11 Azerbaijan Grand Prix Preview SkyF1HD 1080P

To download this torrent, you need a BitTorrent client: Vuze or BTGuard
Download this torrent
Download using Magnet Link

Health:
Seeds: 0
Leechers: 0
Completed:
Last Checked: 12-06-2019 06:54:25

Uploader Reputation points : 541
External: Torrent






Write a Review for the Uploader:   10   Say Thanks with one good review:
Share on Facebook


Details
Name:Formula1 The Inside Line 2019 E11 Azerbaijan Grand Prix Preview SkyF1HD 1080P
Description:




F1 Info

Format                                   : Matroska
Format version                           : Version 4 / Version 2
File size                                : 819 MiB
Duration                                 : 23mn 35s
Overall bit rate                         : 4 855 Kbps
Encoded date                             : UTC 2019-04-25 21:26:00
Writing application                      : mkvmerge v31.0.0 ('Dolores In A Shoestand') 64-bit
Writing library                          : libebml v1.3.6 + libmatroska v1.4.9

Video
ID                                       : 1
Format                                   : AVC
Format/Info                              : Advanced Video Codec
Format profile                           : [email protected]
Format settings, CABAC                   : Yes
Format settings, ReFrames                : 1 frame
Format settings, GOP                     : M=1, N=50
Codec ID                                 : V_MPEG4/ISO/AVC
Duration                                 : 23mn 35s
Bit rate                                 : 4 724 Kbps
Width                                    : 1 920 pixels
Height                                   : 1 080 pixels
Display aspect ratio                     : 16:9
Frame rate mode                          : Constant
Frame rate                               : 25.000 fps
Color space                              : YUV
Chroma subsampling                       : 4:2:0
Bit depth                                : 8 bits
Scan type                                : Progressive
Bits/(Pixel*Frame)                       : 0.091
Stream size                              : 797 MiB (97%)
Default                                  : Yes
Forced                                   : No

Audio
ID                                       : 2
Format                                   : AAC
Format/Info                              : Advanced Audio Codec
Format profile                           : LC
Codec ID                                 : A_AAC
Duration                                 : 23mn 35s
Bit rate                                 : 128 Kbps
Channel(s)                               : 2 channels
Channel positions                        : Front: L R
Sampling rate                            : 48.0 KHz
Frame rate                               : 46.875 fps (1024 spf)
Compression mode                         : Lossy
Delay relative to video                  : -2ms
Stream size                              : 21.6 MiB (3%)
Language                                 : English
Default                                  : Yes
Forced                                   : No


YouTube Video:
Category:Sports
Language:English  English
Total Size:818.36 MB
Info Hash:CD3268D469D603EDFF4243F3B4D70632757835C7
Added By:Banhammer Movie Pirate
Date Added:27-04-2019 12:32:47
Torrent Status:Torrent Verified by SaM Super Administrator on 27th April, 2019


Ratings:Not Yet Rated (Log in to rate it)


Tracker:
udp://tracker.pirateparty.gr:6969/announce

This Torrent also has backup trackers
URLSeedersLeechersCompleted
udp://tracker.pirateparty.gr:6969/announce000
udp://exodus.desync.com:6969/announce000
udp://tracker.coppersurfer.tk:6969/announce000
udp://tracker.iamhansen.xyz:2000/announce000
udp://tracker.opentrackr.org:1337/announce000
udp://open.demonii.si:1337/announce000


File List: 





Comments
No comments still posted