Download Frost Nixon-Il duello (2008) ITA-ENG Ac3 5 1 BDRip 1080p H264 [ArMor] torrent - GloDLS
Login
Username:
Password:
Remember Me:
[Signup]
[Recover Account]
Friends
Angie Torrents
Friendly Site

Pirateiro
Friendly site

Free Courses Online
Friendly site

ETTV
Friendly site

ProStyleX
Friendly site

KaranPC
Friendly site

P2PDL.com
Friendly site

OneHack
Friendly site

IGGGames
Friendly site

Torrent Details For "Frost Nixon-Il duello (2008) ITA-ENG Ac3 5 1 BDRip 1080p H264 [ArMor]"

Frost Nixon-Il duello (2008) ITA-ENG Ac3 5 1 BDRip 1080p H264 [ArMor]

To download this torrent, you need a BitTorrent client: Vuze or BTGuard
Download this torrent
Download using Magnet Link

Health:
Seeds: 0
Leechers: 0
Completed:
Last Checked: 20-11-2020 13:35:19

Uploader Reputation points : 1004
External: Torrent






Write a Review for the Uploader:   0   Say Thanks with one good review:
Share on Facebook


Details
Name:Frost Nixon-Il duello (2008) ITA-ENG Ac3 5 1 BDRip 1080p H264 [ArMor]
Description:








Regista: Ron Howard
Genere: Drammatico
Anno: 2008
Paese: USA, Gran Bretagna, Francia
Durata: 122 min
Data di uscita: 06 febbraio 2009
Distribuzione: Universal Pictures Italia



Frank Langella, Michael Sheen, Kevin Bacon, Matthew Macfadyen, Sam Rockwell, Toby Jones, Oliver Platt, Patty McCormack, Gabriel Jarret, Andy Milder, Jim Meskimen, Kate Jennings Grant, Simone Kessell, Eve Curtis, Rebecca Hall, Jason Ciok, Jenn Gotzon, Mark Simich, Janneke Arent, Alexandria Cree, Paul Caroul, Brett Stoepler, Mickie Banyas, Keith MacKechnie



Frost/Nixon - Il duello, film diretto da Ron Howard, racconta la storia del presidente degli Stati Uniti repubblicano (Frank Langella) che, in seguito all’inchiesta scandalistica Watergate, decide di dimettersi dal suo ruolo. All’uomo si avvicina David Frost (Michael Sheen), un giornalista britannico, che gli chiede di rilasciargli un’intervista esclusiva in cambio di una cospicua somma di denaro. È il 1977 e Nixon, per ottenere consensi, decide di accettare la proposta del reporter. Per procedere, Frost mette su una squadra di giornalisti di talento: John Birt (Matthew Macfadyen), Bob Zelnick (Oliver Platt) e Jim Reston (Sam Rockwell). Sarà proprio quest’ultimo a dare del filo da torcere all’ex presidente, concedendogli una volta per tutte quel processo che non ha mai avuto.



A dramatic retelling of the post-Watergate television interviews between British talk-show host David Frost and former president Richard Nixon.












General
Unique ID                                : 180277642495023132208395610288010290725 (0x87A03603FEE8F787B76BE7195917E625)
Complete name                            : Frost Nixon-Il duello (2008) ITA-ENG Ac3 5.1 BDRip 1080p H264 [ArMor].mkv
Format                                   : Matroska
Format version                           : Version 4
File size                                : 4.95 GiB
Duration                                 : 2 h 1 min
Overall bit rate                         : 5 812 kb/s
Encoded date                             : UTC 2020-11-19 13:21:25
Writing application                      : mkvmerge v15.0.0 ('Duel with the Devil') 64-bit
Writing library                          : libebml v1.3.5 + libmatroska v1.4.5 / Lavf58.29.100

Video
ID                                       : 1
Format                                   : AVC
Format/Info                              : Advanced Video Codec
Format profile                           : [email protected]
Format settings                          : CABAC / 4 Ref Frames
Format settings, CABAC                   : Yes
Format settings, Reference frames        : 4 frames
Codec ID                                 : V_MPEG4/ISO/AVC
Duration                                 : 2 h 1 min
Bit rate                                 : 5 000 kb/s
Width                                    : 1 920 pixels
Height                                   : 816 pixels
Display aspect ratio                     : 2.35:1
Frame rate mode                          : Constant
Frame rate                               : 23.976 (24000/1001) FPS
Color space                              : YUV
Chroma subsampling                       : 4:2:0
Bit depth                                : 8 bits
Scan type                                : Progressive
Bits/(Pixel*Frame)                       : 0.133
Stream size                              : 4.18 GiB (85%)
Writing library                          : x264 core 157 r2935 545de2f
Encoding settings                        : cabac=1 / ref=2 / deblock=1:0:0 / analyse=0x1:0x111 / me=hex / subme=6 / psy=1 / psy_rd=1.00:0.00 / mixed_ref=1 / me_range=16 / chroma_me=1 / trellis=1 / 8x8dct=0 / cqm=0 / deadzone=21,11 / fast_pskip=1 / chroma_qp_offset=-2 / threads=18 / lookahead_threads=3 / sliced_threads=0 / nr=0 / decimate=1 / interlaced=0 / bluray_compat=0 / constrained_intra=0 / bframes=3 / b_pyramid=2 / b_adapt=1 / b_bias=0 / direct=1 / weightb=1 / open_gop=0 / weightp=1 / keyint=240 / keyint_min=24 / scenecut=40 / intra_refresh=0 / rc_lookahead=30 / rc=abr / mbtree=1 / bitrate=5000 / ratetol=1.0 / qcomp=0.60 / qpmin=0 / qpmax=69 / qpstep=4 / vbv_maxrate=20000 / vbv_bufsize=25000 / nal_hrd=none / filler=0 / ip_ratio=1.40 / aq=1:1.00
Default                                  : Yes
Forced                                   : No
Color range                              : Limited
Color primaries                          : BT.709
Transfer characteristics                 : BT.709
Matrix coefficients                      : BT.709

Audio #1
ID                                       : 2
Format                                   : AC-3
Format/Info                              : Audio Coding 3
Commercial name                          : Dolby Digital
Codec ID                                 : A_AC3
Duration                                 : 2 h 1 min
Bit rate mode                            : Constant
Bit rate                                 : 448 kb/s
Channel(s)                               : 6 channels
Channel layout                           : L R C LFE Ls Rs
Sampling rate                            : 48.0 kHz
Frame rate                               : 31.250 FPS (1536 SPF)
Compression mode                         : Lossy
Stream size                              : 390 MiB (8%)
Title                                    : DVD
Language                                 : Italian
Service kind                             : Complete Main
Default                                  : Yes
Forced                                   : No

Audio #2
ID                                       : 3
Format                                   : AC-3
Format/Info                              : Audio Coding 3
Commercial name                          : Dolby Digital
Codec ID                                 : A_AC3
Duration                                 : 2 h 1 min
Bit rate mode                            : Constant
Bit rate                                 : 448 kb/s
Channel(s)                               : 6 channels
Channel layout                           : L R C LFE Ls Rs
Sampling rate                            : 48.0 kHz
Frame rate                               : 31.250 FPS (1536 SPF)
Compression mode                         : Lossy
Stream size                              : 390 MiB (8%)
Title                                    : DTS
Language                                 : English
Service kind                             : Complete Main
Default                                  : No
Forced                                   : No




YouTube Video:
Category:Movies
Language:Italian  Italian
Total Size:4.95 GB
Info Hash:F58FE0FC94B15D6A9A63989F02162C346244423D
Added By:ArMor1 Verified Uploader
Date Added:2020-11-20 21:35:16
Torrent Status:Torrent Verified


Ratings:Not Yet Rated (Log in to rate it)


Tracker:
udp://tracker.coppersurfer.tk:6969/announce

This Torrent also has backup trackers
URLSeedersLeechersCompleted
udp://tracker.coppersurfer.tk:6969/announce000
udp://tracker.leechers-paradise.org:6969/announce000
udp://9.rarbg.to:2710/announce000
udp://exodus.desync.com:6969/announce000
udp://tracker.uw0.xyz:6969/announce000
udp://open.stealth.si:80/announce000
udp://tracker.tiny-vps.com:6969/announce000
udp://open.demonii.si:1337/announce000
udp://tracker.cyberia.is:6969/announce000
udp://tracker.kamigami.org:2710/announce000
udp://opentor.org:2710/announce[/fo000
udp://opentracker.i2p.rocks:6969/announce000
udp://tracker.zerobytes.xyz:1337/announce000
udp://aaa.army:8866/announce000
udp://tracker2.dler.org:80/announce000


File List: 





Comments
No comments still posted