Download Frozen.II.2019.2160p.UHD.BluRay.X265.10bit.HDR.Dual.YG⭐ torrent - GloDLS
Torrent Details For "Frozen.II.2019.2160p.UHD.BluRay.X265.10bit.HDR.Dual.YG⭐"

Frozen.II.2019.2160p.UHD.BluRay.X265.10bit.HDR.Dual.YG⭐

To download this torrent, you need a BitTorrent client: Vuze or BTGuard
Download this torrent
Download using Magnet Link

Health:
Seeds: 226
Leechers: 99
Completed: 2,203 
Last Checked: 17-02-2020 04:51:02

Uploader Reputation points : 1182
External: Torrent






Write a Review for the Uploader:   5   Say Thanks with one good review:
Share on Facebook


Details
Name:Frozen.II.2019.2160p.UHD.BluRay.X265.10bit.HDR.Dual.YG⭐
Description:


==============================================================
Frozen.II.2019.2160p.UHD.BluRay.X265.10bit.HDR.Dual.YG⭐
==============================================================
                   General Information
==============================================================
General

Complete name                            : Frozen.II.2019.2160p.UHD.BluRay.X265.10bit.HDR.Dual.YG
Format                                   : Matroska
Format version                           : Version 4
File size                                : 5.25 GiB
Duration                                 : 1 h 43 min
Overall bit rate                         : 7 280 kb/s
Movie name                               : Frozen.II.2019.2160p.UHD.BluRay.X265.10bit.HDR.Dual.YG
Encoded date                             : UTC 2020-02-14 15:23:56
Writing application                      : mkvmerge v31.0.0 ('Dolores In A Shoestand') 64-bit
Writing library                          : libebml v1.3.6 + libmatroska v1.4.9

Video
ID                                       : 1
Format                                   : HEVC
Format/Info                              : High Efficiency Video Coding
Format profile                           : Main [email protected]@High
HDR format                               : SMPTE ST 2086, HDR10 compatible
Codec ID                                 : V_MPEGH/ISO/HEVC
Duration                                 : 1 h 43 min
Bit rate                                 : 5 998 kb/s
Width                                    : 3 840 pixels
Height                                   : 1 608 pixels
Display aspect ratio                     : 2.40:1
Frame rate mode                          : Constant
Frame rate                               : 23.976 (24000/1001) FPS
Color space                              : YUV
Chroma subsampling                       : 4:2:0 (Type 2)
Bit depth                                : 10 bits
Bits/(Pixel*Frame)                       : 0.041
Stream size                              : 4.32 GiB (82%)
Title                                    : Frozen.II.2019.2160p.UHD.BluRay.X265.10bit.HDR.Dual.YG
Writing library                          : x265 3.2+23-52135ffd9bcd:[Windows][GCC 9.2.1][64 bit] 10bit

Language                                 : English ⭐
Default                                  : Yes
Forced                                   : No
Color range                              : Limited
Color primaries                          : BT.2020
Transfer characteristics                 : PQ
Matrix coefficients                      : BT.2020 non-constant
Mastering display color primaries        : Display P3
Mastering display luminance              : min: 0.0001 cd/m2, max: 1000 cd/m2

Audio #1
ID                                       : 2
Format                                   : AC-3
Format/Info                              : Audio Coding 3
Commercial name                          : Dolby Digital
Codec ID                                 : A_AC3
Duration                                 : 1 h 43 min
Bit rate mode                            : Constant
Bit rate                                 : 640 kb/s
Channel(s)                               : 6 channels
Channel layout                           : L R C LFE Ls Rs
Sampling rate                            : 48.0 kHz
Frame rate                               : 31.250 FPS (1536 SPF)
Compression mode                         : Lossy
Stream size                              : 473 MiB (9%)
Title                                    : Frozen.II.2019.2160p.UHD.BluRay.X265.10bit.HDR.Dual.YG
Language                                 : Spanish ⭐
Service kind                             : Complete Main
Default                                  : Yes
Forced                                   : Yes

Audio #2
ID                                       : 3
Format                                   : AC-3
Format/Info                              : Audio Coding 3
Commercial name                          : Dolby Digital
Codec ID                                 : A_AC3
Duration                                 : 1 h 43 min
Bit rate mode                            : Constant
Bit rate                                 : 640 kb/s
Channel(s)                               : 6 channels
Channel layout                           : L R C LFE Ls Rs
Sampling rate                            : 48.0 kHz
Frame rate                               : 31.250 FPS (1536 SPF)
Compression mode                         : Lossy
Stream size                              : 473 MiB (9%)
Title                                    : Frozen.II.2019.2160p.UHD.BluRay.X265.10bit.HDR.Dual.YG
Language                                 : English ⭐
Service kind                             : Complete Main
Default                                  : No
Forced                                   : No
  Torrent Uploaded by Yerisan Group  
==============================================================

                 Post Information
==============================================================
Posted by============: Yerisan Group
Posted on============: 14/02/2020
------------------------------------------------------------




-------------------------------------------------------
https://yerisangroup.blogspot.com/
-------------------------------------------------------
you can follow me...
Spanish YG

Go.! Go.! Go.! Go.!

(-1337x-)


(-glodls-)


(-thepiratebay-)


(-prostylex-)


(-ettv-)


(-torrentgalaxy-)


*PiRATES_NEVER_DiE!*
*We Just go ON and On and On...FOREVER!*

YouTube Video:
Category:Movies
Language:Spanish  Spanish
Total Size:5.25 GB
Info Hash:60DC959658617F0352F5206D42B7D134BF5E1D47
Added By:Yerisan710 Verified Uploader
Date Added:2020-02-14 23:57:16
Torrent Status:Torrent Verified


Ratings:Not Yet Rated (Log in to rate it)


Tracker:
udp://p4p.arenabg.com:1337/announce

This Torrent also has backup trackers
URLSeedersLeechersCompleted
udp://p4p.arenabg.com:1337/announce3313437
udp://explodie.org:6969/announce860
udp://zephir.monocul.us:6969/announce2311302
udp://tracker.ds.is:6969/announce000
udp://open.demonii.si:1337/announce3315133
udp://exodus.desync.com:6969/announce2910317
udp://denis.stalker.upeer.me:6969/announce2814109
udp://tracker.nyaa.uk:6969/announce2510319
udp://retracker.akado-ural.ru:80/announce2310282
http://tracker.files.fm:6969/announce2410304


File List: 





Comments
No comments still posted