Download Frozen II (2019) 720p BluRay Multi Audios [Hindi - Eng - Tam - Tel] AAC DD2 0 ESub 800MB [HDWebMovies] torrent - GloDLS
Login
Username:
Password:
Remember Me:
[Signup]
[Recover Account]
Friends
Angie Torrents
Friendly Site

The Music Torrents Database
Friendly site

Watch Movies and TV Online
Friendly site

Pirateiro
Friendly site

Free Courses Online
Friendly site

ETTV
Friendly site

KaranPC
Friendly site

P2PDL.com
Friendly site

Torrent Details For "Frozen II (2019) 720p BluRay Multi Audios [Hindi - Eng - Tam - Tel] AAC DD2 0 ESub 80..."

Frozen II (2019) 720p BluRay Multi Audios [Hindi - Eng - Tam - Tel] AAC DD2 0 ESub 80...

To download this torrent, you need a BitTorrent client: Vuze or BTGuard
Download this torrent
Download using Magnet Link

Health:
Seeds: 14
Leechers: 52
Completed:
Last Checked: 03-04-2020 01:11:50

Uploader Reputation points : 210
External: Torrent






Write a Review for the Uploader:   0   Say Thanks with one good review:
Share on Facebook


Details
Name:Frozen II (2019) 720p BluRay Multi Audios [Hindi - Eng - Tam - Tel] AAC DD2 0 ESub 80...
Description:


Movie name :

Frozen II (2019) 720p BluRay Multi Audios [Hindi - Eng - Tam - Tel] AAC DD2.0 ESub 800MB [HDWebMovies]


General
Format : Matroska
Format version : Version 4
File size : 813 MiB
Duration : 1 h 44 min
Overall bit rate : 1 088 kb/s
Encoded date : UTC 2020-04-02 22:42:18
Writing application : mkvmerge v31.0.0 ('Dolores In A Shoestand') 64-bit
Writing library : libebml v1.3.6 + libmatroska v1.4.9

Video
ID : 1
Format : AVC
Format/Info : Advanced Video Codec
Format profile : [email protected]
Format settings : CABAC / 4 Ref Frames
Format settings, CABAC : Yes
Format settings, Reference frames : 4 frames
Codec ID : V_MPEG4/ISO/AVC
Duration : 1 h 44 min
Bit rate : 903 kb/s
Width : 1 274 pixels
Height : 720 pixels
Display aspect ratio : 16:9
Frame rate mode : Variable
Frame rate : 23.976 FPS
Color space : YUV
Chroma subsampling : 4:2:0
Bit depth : 8 bits
Scan type : Progressive
Bits/(Pixel*Frame) : 0.041
Stream size : 667 MiB (82%)
Default : Yes
Forced : No

Audio #1
ID : 2
Format : AAC LC SBR
Format/Info : Advanced Audio Codec Low Complexity with Spectral Band Replication
Commercial name : HE-AAC
Format settings : Explicit
Codec ID : A_AAC-2
Duration : 1 h 44 min
Bit rate : 48.0 kb/s
Channel(s) : 2 channels
Channel layout : L R
Sampling rate : 96.0 kHz
Frame rate : 46.875 FPS (2048 SPF)
Compression mode : Lossy
Stream size : 35.7 MiB (4%)
Language : Tamil
Default : No
Forced : No

Audio #2
ID : 3
Format : AAC LC SBR
Format/Info : Advanced Audio Codec Low Complexity with Spectral Band Replication
Commercial name : HE-AAC
Format settings : Explicit
Codec ID : A_AAC-2
Duration : 1 h 44 min
Bit rate : 48.0 kb/s
Channel(s) : 2 channels
Channel layout : L R
Sampling rate : 96.0 kHz
Frame rate : 46.875 FPS (2048 SPF)
Compression mode : Lossy
Stream size : 35.7 MiB (4%)
Language : Telugu
Default : No
Forced : No

Audio #3
ID : 4
Format : AAC LC SBR
Format/Info : Advanced Audio Codec Low Complexity with Spectral Band Replication
Commercial name : HE-AAC
Format settings : Explicit
Codec ID : A_AAC-2
Duration : 1 h 44 min
Bit rate : 48.0 kb/s
Channel(s) : 2 channels
Channel layout : L R
Sampling rate : 96.0 kHz
Frame rate : 46.875 FPS (2048 SPF)
Compression mode : Lossy
Stream size : 35.7 MiB (4%)
Language : English
Default : No
Forced : No

Audio #4
ID : 5
Format : AAC LC SBR
Format/Info : Advanced Audio Codec Low Complexity with Spectral Band Replication
Commercial name : HE-AAC
Format settings : Explicit
Codec ID : A_AAC-2
Duration : 1 h 44 min
Bit rate : 48.0 kb/s
Channel(s) : 2 channels
Channel layout : L R
Sampling rate : 96.0 kHz
Frame rate : 46.875 FPS (2048 SPF)
Compression mode : Lossy
Stream size : 35.7 MiB (4%)
Language : Hindi
Default : Yes
Forced : No

Text
ID : 6
Format : UTF-8
Codec ID : S_TEXT/UTF8
Codec ID/Info : UTF-8 Plain Text
Duration : 1 h 29 min
Bit rate : 41 b/s
Count of elements : 1014
Stream size : 27.1 KiB (0%)
Language : English
Default : No
Forced : No









YouTube Video:
Category:Movies
Language:Dubs/Dual Audio
Total Size:813.16 MB
Info Hash:16A989F105F3DFBA07E8A6CD9F357F582658C231
Added By:Suryadipta Uploader
Date Added:2020-04-03 08:11:18
Torrent Status:Torrent Verified by Prom3th3uS Super Administrator on 3rd April, 2020


Ratings:Not Yet Rated (Log in to rate it)


Tracker:
http://tracker.nyap2p.com:8080/announce

This Torrent also has backup trackers
URLSeedersLeechersCompleted
http://tracker.nyap2p.com:8080/announce658457
udp://tracker.nyaa.uk:6969/announce150
udp://tracker.coppersurfer.tk:6969/announce000
udp://tracker.opentrackr.org:1337/announce260
udp://tracker.cyberia.is:6969/announce250
udp://tracker.leechers-paradise.org:6969/announce150
udp://tracker.tiny-vps.com:6969/announce260
udp://9.rarbg.com:2710/announce000
udp://p4p.arenabg.com:1337/announce150
udp://tracker.pirateparty.gr:6969/announce000
udp://9.rarbg.me:2770/announce140
udp://exodus.desync.com:6969/announce120
udp://tracker.iamhansen.xyz:2000/announce130


File List: 





Comments
No comments still posted