Download Gauguin-Viaggio a Tahiti-Voyage de Tahiti (2017) ITA-FRE Ac3 5 1 BDRip 1080p H264 [ArMor] torrent - GloDLS
Torrent Details For "Gauguin-Viaggio a Tahiti-Voyage de Tahiti (2017) ITA-FRE Ac3 5 1 BDRip 1080p H264 [Ar..."

Gauguin-Viaggio a Tahiti-Voyage de Tahiti (2017) ITA-FRE Ac3 5 1 BDRip 1080p H264 [Ar...

To download this torrent, you need a BitTorrent client: Vuze or BTGuard
Download this torrent
Download using Magnet Link

Health:
Seeds: 0
Leechers: 0
Completed:
Last Checked: 20-11-2020 13:41:30

Uploader Reputation points : 984
External: Torrent






Write a Review for the Uploader:   0   Say Thanks with one good review:
Share on Facebook


Details
Name:Gauguin-Viaggio a Tahiti-Voyage de Tahiti (2017) ITA-FRE Ac3 5 1 BDRip 1080p H264 [Ar...
Description:








Regista: Edouard Deluc
Genere: Drammatico, Biografico
Anno: 2017
Paese: Francia
Durata: 102 min
Data di uscita: 17 settembre 2020
Distribuzione: Draka Distribution in collaborazione con Conform e Prism Consulting



Vincent Cassel, Tuheï Adams, Malik Zidi, Pua-Taï Hikutini, Pernille Bergendorff, Marc Barbé, Scali Delpeyrat



Gauguin, film diretto da Edouard Deluc, racconta il primo soggiorno a Tahiti del pittore francese, avvenuto tra il 1891 e il 1893. Gauguin (Vincent Cassel), sentendosi oppresso dall'atmosfera cittadina di Parigi, decide di partire nel tentativo di scoprire nuovi posti in grado di risvegliare la sua ispirazione. La ricerca di paesaggi che stimolino la sua creatività e che non risultino artificiali, lo porta sino a Tahiti. Giunto sull'isola solo, lontano da moglie e figli, Gauguin avverte che la natura del posto può risvegliare la sua arte.



Focused on French painter Paul Gauguin's affair with a younger lady in Tahiti.












General
Unique ID                                : 197495098988387439829091747175718206516 (0x94942C2908FB28A4B0F0CF4410083C34)
Complete name                            : Gauguin-Viaggio a Tahiti-Voyage de Tahiti (2017) ITA-FRE Ac3 5.1 BDRip 1080p H264 [ArMor].mkv
Format                                   : Matroska
Format version                           : Version 4
File size                                : 4.07 GiB
Duration                                 : 1 h 40 min
Overall bit rate                         : 5 781 kb/s
Encoded date                             : UTC 2020-11-18 13:38:32
Writing application                      : mkvmerge v15.0.0 ('Duel with the Devil') 64-bit
Writing library                          : libebml v1.3.5 + libmatroska v1.4.5 / Lavf58.29.100

Video
ID                                       : 1
Format                                   : AVC
Format/Info                              : Advanced Video Codec
Format profile                           : [email protected]
Format settings                          : CABAC / 4 Ref Frames
Format settings, CABAC                   : Yes
Format settings, Reference frames        : 4 frames
Codec ID                                 : V_MPEG4/ISO/AVC
Duration                                 : 1 h 40 min
Bit rate                                 : 5 000 kb/s
Width                                    : 1 920 pixels
Height                                   : 800 pixels
Display aspect ratio                     : 2.40:1
Frame rate mode                          : Constant
Frame rate                               : 24.000 FPS
Color space                              : YUV
Chroma subsampling                       : 4:2:0
Bit depth                                : 8 bits
Scan type                                : Progressive
Bits/(Pixel*Frame)                       : 0.136
Stream size                              : 3.44 GiB (84%)
Writing library                          : x264 core 157 r2935 545de2f
Encoding settings                        : cabac=1 / ref=2 / deblock=1:0:0 / analyse=0x1:0x111 / me=hex / subme=6 / psy=1 / psy_rd=1.00:0.00 / mixed_ref=1 / me_range=16 / chroma_me=1 / trellis=1 / 8x8dct=0 / cqm=0 / deadzone=21,11 / fast_pskip=1 / chroma_qp_offset=-2 / threads=18 / lookahead_threads=3 / sliced_threads=0 / nr=0 / decimate=1 / interlaced=0 / bluray_compat=0 / constrained_intra=0 / bframes=3 / b_pyramid=2 / b_adapt=1 / b_bias=0 / direct=1 / weightb=1 / open_gop=0 / weightp=1 / keyint=240 / keyint_min=24 / scenecut=40 / intra_refresh=0 / rc_lookahead=30 / rc=abr / mbtree=1 / bitrate=5000 / ratetol=1.0 / qcomp=0.60 / qpmin=0 / qpmax=69 / qpstep=4 / vbv_maxrate=20000 / vbv_bufsize=25000 / nal_hrd=none / filler=0 / ip_ratio=1.40 / aq=1:1.00
Default                                  : Yes
Forced                                   : No
Color range                              : Limited
Color primaries                          : BT.709
Transfer characteristics                 : BT.709
Matrix coefficients                      : BT.709

Audio #1
ID                                       : 2
Format                                   : AC-3
Format/Info                              : Audio Coding 3
Commercial name                          : Dolby Digital
Codec ID                                 : A_AC3
Duration                                 : 1 h 40 min
Bit rate mode                            : Constant
Bit rate                                 : 448 kb/s
Channel(s)                               : 6 channels
Channel layout                           : L R C LFE Ls Rs
Sampling rate                            : 48.0 kHz
Frame rate                               : 31.250 FPS (1536 SPF)
Compression mode                         : Lossy
Stream size                              : 323 MiB (8%)
Title                                    : DVD
Language                                 : Italian
Service kind                             : Complete Main
Default                                  : Yes
Forced                                   : No

Audio #2
ID                                       : 3
Format                                   : AC-3
Format/Info                              : Audio Coding 3
Commercial name                          : Dolby Digital
Codec ID                                 : A_AC3
Duration                                 : 1 h 40 min
Bit rate mode                            : Constant
Bit rate                                 : 448 kb/s
Channel(s)                               : 6 channels
Channel layout                           : L R C LFE Ls Rs
Sampling rate                            : 48.0 kHz
Frame rate                               : 31.250 FPS (1536 SPF)
Compression mode                         : Lossy
Stream size                              : 323 MiB (8%)
Title                                    : DTS
Language                                 : French
Service kind                             : Complete Main
Default                                  : No
Forced                                   : No




YouTube Video:
Category:Movies
Language:Italian  Italian
Total Size:4.07 GB
Info Hash:409EAF0F14C6DE5BEBA7118A458D799271FFDC86
Added By:ArMor1 Verified Uploader
Date Added:2020-11-20 21:41:27
Torrent Status:Torrent Verified


Ratings:Not Yet Rated (Log in to rate it)


Tracker:
udp://tracker.coppersurfer.tk:6969/announce

This Torrent also has backup trackers
URLSeedersLeechersCompleted
udp://tracker.coppersurfer.tk:6969/announce000
udp://tracker.leechers-paradise.org:6969/announce000
udp://9.rarbg.to:2710/announce000
udp://exodus.desync.com:6969/announce000
udp://tracker.uw0.xyz:6969/announce000
udp://open.stealth.si:80/announce000
udp://tracker.tiny-vps.com:6969/announce000
udp://open.demonii.si:1337/announce000
udp://tracker.cyberia.is:6969/announce000
udp://tracker.kamigami.org:2710/announce000
udp://opentor.org:2710/announce[/fo000
udp://opentracker.i2p.rocks:6969/announce000
udp://tracker.zerobytes.xyz:1337/announce000
udp://aaa.army:8866/announce000
udp://tracker2.dler.org:80/announce000


File List: 





Comments
No comments still posted