Download gotham s05e02 1080p web x265 hevc frank mkv torrent - GloDLS
Login
Username:
Password:
Remember Me:
[Signup]
[Recover Account]
Friends
BTScene
Friendly site

Free Courses Online
Friendly site

ETTV Community
Friendly site

KaranPC
Friendly site

P2PDL.com
Friendly site

Free Tutorials & Courses
Friendly site

Pirateiro
Friendly site
Torrent Details For "gotham s05e02 1080p web x265 hevc frank mkv"

gotham s05e02 1080p web x265 hevc frank mkv

To download this torrent, you need a BitTorrent client: Vuze or BTGuard
Download this torrent
Download using Magnet Link

Health:
Seeds: 7
Leechers: 0
Completed: 46 
Last Checked: 19-01-2019 03:44:02

Uploader Reputation points : 258
External: Torrent






Write a Review for the Uploader:   0   Say Thanks with one good review:
Share on Facebook


Details
Name:gotham s05e02 1080p web x265 hevc frank mkv
Description:
           

    General  Complete name                            : /downloads/gotham.s05e02.1080p.web.x265 hevc frank .mkv Format                                   : Matroska Format version                           : Version 4 / Version 2 File size                                : 263 MiB Duration                                 : 44 min 4 s Overall bit rate                         : 833 kb/s   Video ID                                       : 1 Format                                   : HEVC Format/Info                              : High Efficiency Video Coding Format profile                           : Main [email protected]@High Codec ID                                 : V_MPEGH/ISO/HEVC Duration                                 : 44 min 4 s Bit rate                                 : 708 kb/s Width                                    : 1 920 pixels Height                                   : 1 080 pixels Display aspect ratio                     : 16:9 Frame rate mode                          : Constant Frame rate                               : 23.976 (24000/1001) FPS Color space                              : YUV Chroma subsampling                       : 4:2:0 (Type 2) Bit depth                                : 10 bits Bits/(Pixel*Frame)                       : 0.014 Stream size                              : 223 MiB (85%) Forced                                   : No Color range                              : Limited Color primaries                          : BT.2020 Transfer characteristics                 : PQ Matrix coefficients                      : BT.2020 non-constant  Audio ID                                       : 2 Format                                   : Opus Codec ID                                 : A_OPUS Duration                                 : 44 min 4 s Bit rate                                 : 121 kb/s Channel(s)                               : 2 channels Channel positions                        : Front: L R Sampling rate                            : 48.0 kHz Frame rate                               : 50.000 FPS (960 SPF) Compression mode                         : Lossy Stream size                              : 38.1 MiB (15%) Default                                  : Yes Forced                                   : No          

 
YouTube Video:   
Category:TV
Language:English  English
Total Size:262.59 MB
Info Hash:1C3766A542C2B20C259E3A791DCF2AE4130FCAF0
Added By:hevcfrank
Date Added:11-01-2019 17:34:33
Torrent Status:Torrent Verified by SaM Super Administrator on 11th January, 2019


Ratings:Not Yet Rated (Log in to rate it)


Tracker:
udp://glotorrents.pw:6969/announce

This Torrent also has backup trackers
URLSeedersLeechersCompleted
udp://glotorrents.pw:6969/announce000
udp://tracker.pubt.net:2710/announce000
udp://tracker.openbittorrent.com:80/announce000
udp://open.demonii.com:1337/announce000
udp://tracker.torrent.eu.org:451/announce2020
http://tracker.city9x.com:2710/announce000
udp://open.demonii.com:1337/announce000
udp://tracker.openbittorrent.com:80/announce000
udp://9.rarbg.com:2710/announce000
udp://tracker.coppersurfer.tk:6969/announce104
udp://tracker.opentrackr.org:13372011
udp://tracker.opentrackr.org:13372011


File List: 





Comments
No comments still posted