Download Gujjubhai Most Wanted 2018 Hindi Movie Web-dl x264 ac3 torrent - GloDLS
Login
Username:
Password:
Remember Me:
[Signup]
[Recover Account]
Friends
BTScene
Friendly site

Free Courses Online
Friendly site

ETTV Community
Friendly site

KaranPC
Friendly site

P2PDL.com
Friendly site

Free Tutorials & Courses
Friendly site

Pirateiro
Friendly site
Torrent Details For "Gujjubhai Most Wanted 2018 Hindi Movie Web-dl x264 ac3"

Gujjubhai Most Wanted 2018 Hindi Movie Web-dl x264 ac3

To download this torrent, you need a BitTorrent client: Vuze or BTGuard
Download this torrent
Download using Magnet Link

Health:
Seeds: 22
Leechers: 0
Completed:
Last Checked: 14-03-2019 22:15:12

Uploader Reputation points : 495
External: Torrent






Write a Review for the Uploader:   0   Say Thanks with one good review:
Share on Facebook


Details
Name:Gujjubhai Most Wanted 2018 Hindi Movie Web-dl x264 ac3
Description:


Gujjubhai Most Wanted 2018 Hindi Movie Web-dl x264 ac3


https://www.imdb.com/title/tt7790898/




Code:

General
Complete name                            : Gujjubhai Most Wanted 2018 Hindi Movie Web-dl x264 ac3.mp4
Format                                   : MPEG-4
Format profile                           : Base Media
Codec ID                                 : isom (isom/iso2/avc1/mp41)
File size                                : 1.08 GiB
Duration                                 : 2 h 44 min
Overall bit rate                         : 940 kb/s
Video
ID                                       : 1
Format                                   : AVC
Format/Info                              : Advanced Video Codec
Format profile                           : [email protected]
Format settings                          : CABAC / 2 Ref Frames
Format settings, CABAC                   : Yes
Format settings, RefFrames               : 2 frames
Codec ID                                 : avc1
Codec ID/Info                            : Advanced Video Coding
Duration                                 : 2 h 44 min
Bit rate                                 : 742 kb/s
Width                                    : 960 pixels
Height                                   : 640 pixels
Display aspect ratio                     : 3:2
Frame rate mode                          : Constant
Frame rate                               : 25.000 FPS
Color space                              : YUV
Chroma subsampling                       : 4:2:0
Bit depth                                : 8 bits
Scan type                                : Progressive
Bits/(Pixel*Frame)                       : 0.048
Stream size                              : 875 MiB (79%)
Audio
ID                                       : 2
Format                                   : AC-3
Format/Info                              : Audio Coding 3
Codec ID                                 : ac-3
Duration                                 : 2 h 44 min
Bit rate mode                            : Constant
Bit rate                                 : 192 kb/s
Channel(s)                               : 6 channels
Channel positions                        : Front: L C R, Side: L R, LFE
Sampling rate                            : 44.1 kHz
Frame rate                               : 28.711 FPS (1536 SPF)
Bit depth                                : 16 bits
Compression mode                         : Lossy
Stream size                              : 226 MiB (20%)










YouTube Video:
Category:Movies
Language:Hindi
Total Size:1.08 GB
Info Hash:3092426BCA967EAE826E3438846B3DA7C733A06E
Added By:Pherarim Verified Uploader
Date Added:14-03-2019 22:10:32
Torrent Status:Torrent Verified


Ratings:Not Yet Rated (Log in to rate it)


Tracker:
udp://tracker.coppersurfer.tk:6969/announce

This Torrent also has backup trackers
URLSeedersLeechersCompleted
udp://tracker.coppersurfer.tk:6969/announce300
udp://tracker.leechers-paradise.org:6969/announce200
udp://tracker.pirateparty.gr:6969/announce300
udp://tracker.internetwarriors.net:1337/announce200
udp://explodie.org:6969/announce200
udp://tracker.opentrackr.org:1337/announce200
udp://tracker.tiny-vps.com:6969/announce200
udp://open.demonii.si:1337/announce300
udp://tracker.torrent.eu.org:451/announce200
udp://glotorrents.pw:6969/announce000
udp://ipv4.tracker.harry.lu:80/announce000
udp://9.rarbg.to:2790/announce100
udp://tracker.trackerfix.com:80/announce000


File List: 





Comments
No comments still posted