Login
Username:
Password:
Remember Me:
[Signup]
[Recover Account]
Friends
BTScene
Friendly site

Free Courses Online
Friendly site

Anime RG
Friendly site

KaranPC
Friendly site

P2PDL.com
Friendly site

Free Tutorials & Courses
Friendly site
Torrent Details For "Hells Kitty 2018 HDRip AC3 5 1 x264"

Hells Kitty 2018 HDRip AC3 5 1 x264

To download this torrent, you need a BitTorrent client: Vuze or BTGuard
Download this torrent
Download using Magnet Link

Direct Download - no client needed

Download Faster - High Speed Download

Health:
Seeds: 0
Leechers: 9
Completed:
Last Checked: 11-09-2018 00:19:27

Uploader Reputation points : 4436
External: Torrent



BTGuard - BitTorrent Anonymously


Write a Review for the Uploader:   20   Say Thanks with one good review:
Share on Facebook


Details
Name:Hells Kitty 2018 HDRip AC3 5 1 x264
Description:




General
Format                                   : Matroska
Format version                           : Version 4 / Version 2
File size                                : 907 MiB
Duration                                 : 1 h 37 min
Overall bit rate                         : 1 297 kb/s

Video
ID                                       : 1
Format                                   : AVC
Format/Info                              : Advanced Video Codec
Format profile                           : [email protected]
Format settings                          : CABAC / 4 Ref Frames
Format settings, CABAC                   : Yes
Format settings, RefFrames               : 4 frames
Codec ID                                 : V_MPEG4/ISO/AVC
Duration                                 : 1 h 37 min
Bit rate                                 : 900 kb/s
Width                                    : 720 pixels
Height                                   : 400 pixels
Display aspect ratio                     : 16:9
Frame rate mode                          : Constant
Frame rate                               : 23.976 (24000/1001) FPS
Color space                              : YUV
Chroma subsampling                       : 4:2:0
Bit depth                                : 8 bits
Scan type                                : Progressive
Bits/(Pixel*Frame)                       : 0.130
Stream size                              : 638 MiB (70%)
Writing library                          : x264 core 148 r2708 86b7198
Default                                  : Yes
Forced                                   : No

Audio
ID                                       : 2
Format                                   : AC-3
Format/Info                              : Audio Coding 3
Codec ID                                 : A_AC3
Duration                                 : 1 h 37 min
Bit rate mode                            : Constant
Bit rate                                 : 384 kb/s
Channel(s)                               : 6 channels
Channel positions                        : Front: L C R, Side: L R, LFE
Sampling rate                            : 48.0 kHz
Frame rate                               : 31.250 FPS (1536 SPF)
Bit depth                                : 16 bits
Compression mode                         : Lossy
Stream size                              : 269 MiB (30%)
Language                                 : English
Service kind                             : Complete Main
Default                                  : Yes
Forced                                   : No







YouTube Video:
Category:Movies
Language:English  English
Total Size:907.32 MB
Info Hash:5815AB5A13C87236908178A6CE58EB3360C2B05B
Added By:MovieFreak Verified UploaderMovie Pirate
Date Added:13-03-2018 22:26:45
Torrent Status:Torrent Verified


Ratings:Not Yet Rated (Log in to rate it)


Tracker:
udp://tracker.pirateparty.gr:6969/announce

This Torrent also has backup trackers
URLSeedersLeechersCompleted
udp://tracker.pirateparty.gr:6969/announce020
udp://tracker.opentrackr.org:1337/announce020
http://tracker.opentrackr.org/announce000
udp://tracker.vanitycore.co:6969/announce010
udp://public.popcorn-tracker.org:6969/announce010
udp://9.rarbg.to:2710/announce000
udp://9.rarbg.me:2710/announce000
udp://9.rarbg.com:2770/announce000
udp://inferno.demonoid.pw:3391/announce000
udp://tracker.internetwarriors.net:1337/announce010
udp://ipv4.tracker.harry.lu:80/announce000
udp://p4p.arenabg.ch:1337/announce000
http://tracker.vanitycore.co:6969/announce010
http://public.popcorn-tracker.org:6969/announce010
udp://tracker.zer0day.to:1337/announce000


File List: 





Comments
No comments still posted