Download I segreti di Brokeback Mountain (2005) ITA-ENG Ac3 5 1 BDRip 1080p H264 [ArMor] torrent - GloDLS
Login
Username:
Password:
Remember Me:
[Signup]
[Recover Account]
Friends
Angie Torrents
Friendly Site

Pirateiro
Friendly site

Free Courses Online
Friendly site

ETTV
Friendly site

KaranPC
Friendly site

P2PDL.com
Friendly site

OneHack
Friendly site

IGGGames
Friendly site

Torrent Details For "I segreti di Brokeback Mountain (2005) ITA-ENG Ac3 5 1 BDRip 1080p H264 [ArMor]"

I segreti di Brokeback Mountain (2005) ITA-ENG Ac3 5 1 BDRip 1080p H264 [ArMor]

To download this torrent, you need a BitTorrent client: Vuze or BTGuard
Download this torrent
Download using Magnet Link

Health:
Seeds: 0
Leechers: 6
Completed: 203 
Last Checked: 29-11-2020 07:46:01

Uploader Reputation points : 984
External: Torrent






Write a Review for the Uploader:   0   Say Thanks with one good review:
Share on Facebook


Details
Name:I segreti di Brokeback Mountain (2005) ITA-ENG Ac3 5 1 BDRip 1080p H264 [ArMor]
Description:







Regista: Ang Lee
Genere: Drammatico, Sentimentale
Anno: 2005
Paese: USA
Durata: 134 min
Data di uscita: 20 gennaio 2006
Distribuzione: BIM distribuzione



Jake Gyllenhaal, Heath Ledger, Michelle Williams, Anne Hathaway, Randy Quaid, Anna Faris, Linda Cardellini, Scott Michael Campbell, Kate Mara, Cheyenne Hill, Brooklynn Proulx, Tom Carey, David Harbour, Mary Liboiron, Steve Eichler, Mary McBride, Steven Cree Molison, Hannah Stewart, Graham Beckel, Roberta Maxwell



I segreti di Brokeback Mountain, è un film del 2005 diretto da Ang Lee, ambientato nell’estate del 1963 nel Wyoming, dove un allevatore ingaggia due giovani per condurre il suo gregge di pecore a Brokeback Mountain. I due neo assunti non potrebbero essere più diversi: mentre Jack Twist (Jake Gyllenhaal) è un estroverso e chiassoso cowboy da rodeo, Ennis del Mar (Heath Ledger) è profondamente introverso e non ama conversare. Le asperità della montagna e la vicinanza forzata per tutta l’estate finiscono per coinvolgere i due in una storia d’amore inaspettata. Ma sopraggiunge l’autunno e con esso la fine del lavoro per l’allevatore.



The story of a forbidden and secretive relationship between two cowboys, and their lives over the years.












General
Unique ID                                : 172936304391907845253865470357020017177 (0x821A521A0D032E7D8F8C16CC50C30219)
Complete name                            : I segreti di Brokeback Mountain (2005) ITA-ENG Ac3 5.1 BDRip 1080p H264 [ArMor].mkv
Format                                   : Matroska
Format version                           : Version 4
File size                                : 5.36 GiB
Duration                                 : 2 h 14 min
Overall bit rate                         : 5 704 kb/s
Encoded date                             : UTC 2020-10-21 12:05:19
Writing application                      : mkvmerge v15.0.0 ('Duel with the Devil') 64-bit
Writing library                          : libebml v1.3.5 + libmatroska v1.4.5 / Lavf58.29.100

Video
ID                                       : 1
Format                                   : AVC
Format/Info                              : Advanced Video Codec
Format profile                           : [email protected]
Format settings                          : CABAC / 4 Ref Frames
Format settings, CABAC                   : Yes
Format settings, Reference frames        : 4 frames
Codec ID                                 : V_MPEG4/ISO/AVC
Duration                                 : 2 h 14 min
Bit rate                                 : 4 806 kb/s
Width                                    : 1 920 pixels
Height                                   : 1 040 pixels
Display aspect ratio                     : 1.85:1
Frame rate mode                          : Constant
Frame rate                               : 23.976 (24000/1001) FPS
Color space                              : YUV
Chroma subsampling                       : 4:2:0
Bit depth                                : 8 bits
Scan type                                : Progressive
Bits/(Pixel*Frame)                       : 0.100
Stream size                              : 4.51 GiB (84%)
Writing library                          : x264 core 157 r2935 545de2f
Encoding settings                        : cabac=1 / ref=2 / deblock=1:0:0 / analyse=0x1:0x111 / me=hex / subme=6 / psy=1 / psy_rd=1.00:0.00 / mixed_ref=1 / me_range=16 / chroma_me=1 / trellis=1 / 8x8dct=0 / cqm=0 / deadzone=21,11 / fast_pskip=1 / chroma_qp_offset=-2 / threads=18 / lookahead_threads=3 / sliced_threads=0 / nr=0 / decimate=1 / interlaced=0 / bluray_compat=0 / constrained_intra=0 / bframes=3 / b_pyramid=2 / b_adapt=1 / b_bias=0 / direct=1 / weightb=1 / open_gop=0 / weightp=1 / keyint=240 / keyint_min=24 / scenecut=40 / intra_refresh=0 / rc_lookahead=30 / rc=crf / mbtree=1 / crf=20.0 / qcomp=0.60 / qpmin=0 / qpmax=69 / qpstep=4 / vbv_maxrate=20000 / vbv_bufsize=25000 / crf_max=0.0 / nal_hrd=none / filler=0 / ip_ratio=1.40 / aq=1:1.00
Default                                  : Yes
Forced                                   : No
Color range                              : Limited
Color primaries                          : BT.709
Transfer characteristics                 : BT.709
Matrix coefficients                      : BT.709

Audio #1
ID                                       : 2
Format                                   : AC-3
Format/Info                              : Audio Coding 3
Commercial name                          : Dolby Digital
Codec ID                                 : A_AC3
Duration                                 : 2 h 14 min
Bit rate mode                            : Constant
Bit rate                                 : 448 kb/s
Channel(s)                               : 6 channels
Channel layout                           : L R C LFE Ls Rs
Sampling rate                            : 48.0 kHz
Frame rate                               : 31.250 FPS (1536 SPF)
Compression mode                         : Lossy
Stream size                              : 431 MiB (8%)
Title                                    : Surround
Language                                 : Italian
Service kind                             : Complete Main
Default                                  : Yes
Forced                                   : No

Audio #2
ID                                       : 3
Format                                   : AC-3
Format/Info                              : Audio Coding 3
Commercial name                          : Dolby Digital
Codec ID                                 : A_AC3
Duration                                 : 2 h 14 min
Bit rate mode                            : Constant
Bit rate                                 : 448 kb/s
Channel(s)                               : 6 channels
Channel layout                           : L R C LFE Ls Rs
Sampling rate                            : 48.0 kHz
Frame rate                               : 31.250 FPS (1536 SPF)
Compression mode                         : Lossy
Stream size                              : 431 MiB (8%)
Title                                    : DTS
Language                                 : English
Service kind                             : Complete Main
Default                                  : No
Forced                                   : No


YouTube Video:
Category:Movies
Language:Italian  Italian
Total Size:5.36 GB
Info Hash:317532FEA0667ADB653F46B776297DB7E4A91389
Added By:ArMor1 Verified Uploader
Date Added:2020-10-22 06:05:44
Torrent Status:Torrent Verified


Ratings:Not Yet Rated (Log in to rate it)


Tracker:
udp://tracker.coppersurfer.tk:6969/announce

This Torrent also has backup trackers
URLSeedersLeechersCompleted
udp://tracker.coppersurfer.tk:6969/announce000
udp://tracker.opentrackr.org:1337/announce01106
udp://tracker.leechers-paradise.org:6969/announce0137
udp://tracker.zer0day.to:1337/announce000
udp://eddie4.nl:6969/announce000
udp://9.rarbg.me:2790/announce0114
udp://9.rarbg.to:2730/announce0114
udp://9.rarbg.com:2710/announce0114
udp://tracker.pirateparty.gr:6969/announce000
udp://p4p.arenabg.com:1337/announce0118
http://ipv4.tracker.harry.lu/announce000
http://ipv4.tracker.harry.lu:80/announce000
http://t.nyaatracker.com/announce000
http://t.nyaatracker.com:80/announce000
http://tracker.torrentyorg.pl:80/announce000


File List: 





Comments
No comments still posted