Download Kasganj 2019 Hindi 720p WEB-DL x264 AAC { TaRa } mkv torrent - GloDLS
Login
Username:
Password:
Remember Me:
[Signup]
[Recover Account]
Friends
Angie Torrents
Friendly Site

The Music Torrents Database
Friendly site

Watch Movies and TV Online
Friendly site

Pirateiro
Friendly site

Free Courses Online
Friendly site

ETTV
Friendly site

KaranPC
Friendly site

P2PDL.com
Friendly site

OneHack
Friendly site

Torrent Details For "Kasganj 2019 Hindi 720p WEB-DL x264 AAC { TaRa } mkv"

Kasganj 2019 Hindi 720p WEB-DL x264 AAC { TaRa } mkv

To download this torrent, you need a BitTorrent client: Vuze or BTGuard
Download this torrent
Download using Magnet Link

Health:
Seeds: 7
Leechers: 2
Completed: 1,818 
Last Checked: 21-12-2019 21:22:05

Uploader Reputation points : 548
External: Torrent






Write a Review for the Uploader:   0   Say Thanks with one good review:
Share on Facebook


Details
Name:Kasganj 2019 Hindi 720p WEB-DL x264 AAC { TaRa } mkv
Description:

Kasganj 2019 Hindi 720p WEB-DL x264 AAC { TaRa }.mkv


===================================================================
General
Complete name               : Kasganj 2019 Hindi 720p WEB-DL x264 AAC { TaRa }.mkv
Format                      : Matroska
Format version              : Version 4
File size                   : 1.04 GiB
Duration                    : 1 h 18 min
Overall bit rate            : 1 890 kb/s
===================================================================
Video
ID                          : 1
Format                      : AVC
Format/Info                 : Advanced Video Codec
Format profile              : [email protected]
Format settings             : CABAC / 4 Ref Frames
Format settings, CABAC      : Yes
Format settings, Reference  : 4 frames
Codec ID                    : V_MPEG4/ISO/AVC
Duration                    : 1 h 18 min
Bit rate                    : 1 800 kb/s
Width                       : 1 280 pixels
Height                      : 720 pixels
Display aspect ratio        : 16:9
Frame rate mode             : Variable
Frame rate                  : 25.000 FPS
Color space                 : YUV
Chroma subsampling          : 4:2:0
Bit depth                   : 8 bits
Scan type                   : Progressive
Bits/(Pixel*Frame)          : 0.078
Stream size                 : 1 006 MiB (95%)
Title                       : ......::::: TaRa ::::::.....
Language                    : Hindi
Default                     : Yes
Forced                      : No
===================================================================
Audio
ID                          : 2
Format                      : AAC LC
Format/Info                 : Advanced Audio Codec Low Complexity
Codec ID                    : A_AAC-2
Duration                    : 1 h 18 min
Bit rate                    : 96.0 kb/s
Channel(s)                  : 2 channels
Channel layout              : L R
Sampling rate               : 48.0 kHz
Frame rate                  : 46.875 FPS (1024 SPF)
Compression mode            : Lossy
Delay relative to video     : -80 ms
Stream size                 : 54.8 MiB (5%)
Title                       : ......::::: TaRa ::::::.....
Language                    : Hindi
Default                     : Yes
Forced                      : No
===================================================================

























YouTube Video:
Category:Movies
Language:Hindi  Hindi
Total Size:1.04 GB
Info Hash:25EF93C354385F7DACE7E1BEC0AAE1C81E79D109
Added By:SkTaRa Verified UploaderMovie Pirate
Date Added:2019-10-09 12:49:07
Torrent Status:Torrent Verified


Ratings:Not Yet Rated (Log in to rate it)


Tracker:
udp://tracker.coppersurfer.tk:6969/announce

This Torrent also has backup trackers
URLSeedersLeechersCompleted
udp://tracker.coppersurfer.tk:6969/announce0125
udp://tracker.leechers-paradise.org:6969/announce2018
udp://bt.xxx-tracker.com:2710/announce000
udp://tracker.internetwarriors.net:1337/announce000
udp://tracker.openbittorrent.com:80/announce000
udp://explodie.org:6969/announce000
udp://tracker.opentrackr.org:1337/announce1029
udp://tracker.tiny-vps.com:6969/announce1010
udp://open.demonii.si:1337/announce0018
udp://tracker.torrent.eu.org:451/announce10631
udp://tracker.pirateparty.gr:6969/announce0125
udp://ipv4.tracker.harry.lu:80/announce000
udp://tracker.cyberia.is:6969/announce20749
udp://9.rarbg.to:2750/announce000
udp://denis.stalker.upeer.me:6969/announce00313


File List: 





Comments
No comments still posted