Download Killer Klowns From Outer Space (1988) 720p h264 ita eng sub ita eng-MIRCrew torrent - GloDLS
Torrent Details For "Killer Klowns From Outer Space (1988) 720p h264 ita eng sub ita eng-MIRCrew"

Killer Klowns From Outer Space (1988) 720p h264 ita eng sub ita eng-MIRCrew

To download this torrent, you need a BitTorrent client: Vuze or BTGuard
Download this torrent
Download using Magnet Link

Health:
Seeds: 5
Leechers: 49
Completed:
Last Checked: 15-05-2019 11:16:41

Uploader Reputation points : 3067
External: Torrent






Write a Review for the Uploader:   0   Say Thanks with one good review:
Share on Facebook


Details
Name:Killer Klowns From Outer Space (1988) 720p h264 ita eng sub ita eng-MIRCrew
Description:
Killer Klowns From Outer Space (1988).720p.H264.italian.english.Ac3.sub.ita.eng-MIRCrew




NO FOUND ONLY ORIGINAL RELEASE

My release is always in double track audio italian and Original audio
for select it use VLC or dvd player home
not use wmp

Killer Klowns From Outer Space (1988)

Quality MIRCrew on HD 720p da  1,4 gb









Titolo originale Killer Klowns from Outer Space
Paese di produzione Stati Uniti d'America
Anno 1988
Durata 83 min
Genere orrore, commedia, fantascienza
Regia Fratelli Chiodo
Effetti speciali Fratelli Chiodo
Musiche John Massari



   Grant Cramer: Mike Tobacco
   Suzanne Snyder: Debbie Stone
   John Allen Nelson: Dave Hanson, poliziotto
   John Vernon: Curtis Mooney, ufficiale di polizia
   Michael Siegel e Peter Licassi: i fratelli Terenzi, gelatai



È un tranquillo venerdì sera nella cittadina americana di Crescent Cove, quando un gruppo di adolescenti avvista una stella cadente dirigersi verso il bosco. Mike e Debbie, una coppia di fidanzati, decidono di seguirla. Arrivati sul luogo, scoprono che si tratta di una grande astronave a forma di tendone da circo.



When a small town is invaded by aliens from outer space who are capturing and killing the townspeople, no one takes them seriously. Why? The aliens all look like circus clowns, use weapons that look clown like, and all have painted on smiles. Only a few of the young people in the town realize the danger and of course no one believes them.





General
Unique ID                                : 317925367271178621554571775538629030554 (0xEF2E32D04ACFD42B26E27F0F41C5B29A)
Complete name                            : Killer Klowns From Outer Space (1988).720p.h264.ita.eng.sub.ita.eng-MIRCrew\Killer Klowns From Outer Space (1988).720p.h264.ita.eng.sub.ita.eng-MIRCrew.mkv
Format                                   : Matroska
Format version                           : Version 4 / Version 2
File size                                : 1.36 GiB
Duration                                 : 1h 26mn
Overall bit rate                         : 2 265 Kbps
Movie name                               : MIRCrew
Encoded date                             : UTC 2019-04-13T14:43:16Z
Writing application                      : mkvmerge v26.0.0 ('In The Game') 64-bit
Writing library                          : Lavf55.12.0

Video
ID                                       : 1
Format                                   : AVC
Format/Info                              : Advanced Video Codec
Format profile                           : [email protected]
Format settings, CABAC                   : Yes
Format settings, ReFrames                : 4 frames
Codec ID                                 : V_MPEG4/ISO/AVC
Duration                                 : 1h 26mn
Bit rate                                 : 1 900 Kbps
Width                                    : 1 280 pixels
Height                                   : 688 pixels
Display aspect ratio                     : 1.860
Frame rate                               : 23.976 fps
Color space                              : YUV
Chroma subsampling                       : 4:2:0
Bit depth                                : 8 bits
Scan type                                : Progressive
Bits/(Pixel*Frame)                       : 0.090
Stream size                              : 1.10 GiB (81%)
Title                                    : MIRCrew
Writing library                          : x264 core 142 r2479 dd79a61
Encoding settings                        : cabac=1 / ref=1 / deblock=1:0:0 / analyse=0x1:0x111 / me=hex / subme=2 / psy=1 / psy_rd=1.00:0.00 / mixed_ref=0 / me_range=16 / chroma_me=1 / trellis=0 / 8x8dct=0 / cqm=0 / deadzone=21,11 / fast_pskip=1 / chroma_qp_offset=0 / threads=6 / lookahead_threads=2 / sliced_threads=0 / nr=0 / decimate=1 / interlaced=0 / bluray_compat=0 / constrained_intra=0 / bframes=3 / b_pyramid=2 / b_adapt=1 / b_bias=0 / direct=1 / weightb=1 / open_gop=0 / weightp=1 / keyint=240 / keyint_min=24 / scenecut=40 / intra_refresh=0 / rc_lookahead=10 / rc=abr / mbtree=1 / bitrate=1900 / ratetol=1.0 / qcomp=0.60 / qpmin=0 / qpmax=69 / qpstep=4 / vbv_maxrate=50000 / vbv_bufsize=62500 / nal_hrd=none / filler=0 / ip_ratio=1.40 / aq=1:1.00
Language                                 : Italian
Default                                  : Yes
Forced                                   : No
DURATION                                 : 01:26:01.865000000
NUMBER_OF_FRAMES                         : 123761
NUMBER_OF_BYTES                          : 1212378598
_STATISTICS_WRITING_APP                  : mkvmerge v26.0.0 ('In The Game') 64-bit
_STATISTICS_WRITING_DATE_UTC             : 2019-04-14 08:02:37
_STATISTICS_TAGS                         : BPS DURATION NUMBER_OF_FRAMES NUMBER_OF_BYTES
Color primaries                          : BT.709-5, BT.1361, IEC 61966-2-4, SMPTE RP177
Transfer characteristics                 : BT.709-5, BT.1361
Matrix coefficients                      : BT.709-5, BT.1361, IEC 61966-2-4 709, SMPTE RP177

Audio #1
ID                                       : 2
Format                                   : AC-3
Format/Info                              : Audio Coding 3
Mode extension                           : CM (complete main)
Codec ID                                 : A_AC3
Duration                                 : 1h 26mn
Bit rate mode                            : Constant
Bit rate                                 : 192 Kbps
Channel(s)                               : 2 channels
Channel positions                        : Front: L R
Sampling rate                            : 48.0 KHz
Bit depth                                : 16 bits
Compression mode                         : Lossy
Delay relative to video                  : -5ms
Stream size                              : 118 MiB (8%)
Title                                    : Ita Ac3
Language                                 : Italian
Default                                  : Yes
Forced                                   : No
DURATION                                 : 01:26:01.696000000
NUMBER_OF_FRAMES                         : 161303
NUMBER_OF_BYTES                          : 123880704
_STATISTICS_WRITING_APP                  : mkvmerge v26.0.0 ('In The Game') 64-bit
_STATISTICS_WRITING_DATE_UTC             : 2019-04-14 08:02:37
_STATISTICS_TAGS                         : BPS DURATION NUMBER_OF_FRAMES NUMBER_OF_BYTES

Audio #2
ID                                       : 3
Format                                   : AC-3
Format/Info                              : Audio Coding 3
Mode extension                           : CM (complete main)
Codec ID                                 : A_AC3
Duration                                 : 1h 26mn
Bit rate mode                            : Constant
Bit rate                                 : 192 Kbps
Channel(s)                               : 2 channels
Channel positions                        : Front: L R
Sampling rate                            : 48.0 KHz
Bit depth                                : 16 bits
Compression mode                         : Lossy
Delay relative to video                  : -5ms
Stream size                              : 118 MiB (8%)
Title                                    : Eng Ac3
Language                                 : English
Default                                  : No
Forced                                   : No
DURATION                                 : 01:26:01.856000000
NUMBER_OF_FRAMES                         : 161308
NUMBER_OF_BYTES                          : 123884544
_STATISTICS_WRITING_APP                  : mkvmerge v26.0.0 ('In The Game') 64-bit
_STATISTICS_WRITING_DATE_UTC             : 2019-04-14 08:02:37
_STATISTICS_TAGS                         : BPS DURATION NUMBER_OF_FRAMES NUMBER_OF_BYTES






YouTube Video:
Category:Movies
Language:English  English
Total Size:1.36 GB
Info Hash:1D3CBA6D7C9B8572AE8A0889BF2AEDB8A98CDE06
Added By:robbyrs Verified Uploader
Date Added:2019-05-15 10:05:04
Torrent Status:Torrent Verified


Ratings:Not Yet Rated (Log in to rate it)


Tracker:
udp://tracker.coppersurfer.tk:6969/announce

This Torrent also has backup trackers
URLSeedersLeechersCompleted
udp://tracker.coppersurfer.tk:6969/announce0140
udp://tracker.torrent.eu.org:451/announce110
udp://tracker.pirateparty.gr:6969/announce0140
udp://tracker.opentrackr.org:1337/announce130
udp://tracker.leechers-paradise.org:6969/announce110
udp://tracker.eddie4.nl:6969/announce000
udp://shadowshq.yi.org:6969/announce000
udp://shadowshq.eddie4.nl:6969/announce000
udp://inferno.demonoid.pw:3391/announce000
udp://eddie4.nl:6969/announce000
udp://9.rarbg.to:2730/announce110
udp://9.rarbg.com:2710/announce000
udp://9.rarbg.me:2780/announce110
udp://62.138.0.158:6969/announce0140
udp://151.80.120.114:2710/announce000


File List: 





Comments
No comments still posted