Download Kokeshi Vol 2 Body Talk jp xxx mp4 torrent - GloDLS
Torrent Details For "Kokeshi Vol 2 Body Talk jp xxx mp4"

Kokeshi Vol 2 Body Talk jp xxx mp4

To download this torrent, you need a BitTorrent client: Vuze or BTGuard
Download this torrent
Download using Magnet Link

Health:
Seeds: 142
Leechers: 79
Completed: 204 
Last Checked: 15-10-2020 18:26:17

Uploader Reputation points : 16
External: Torrent






Write a Review for the Uploader:   0   Say Thanks with one good review:
Share on Facebook


Details
Name:Kokeshi Vol 2 Body Talk jp xxx mp4
Description:
----------------Mediainfo----------------
Format : MPEG-4
Format profile : Base Media
Codec ID : isom (isom/iso2/avc1/mp41)
File size : 950 MiB
Duration : 1 h 28 min
Overall bit rate mode: Variable
Overall bit rate: 1 506 kb/s

Video
ID: 1
Format : AVC
Format/Info : Advanced Video Codec
Format profile : [email protected]
Format settings: CABAC / 4 Ref Frames
Format settings, CABAC : Yes
Format settings, ReFrames : 4 frames
Codec ID : avc1
Codec ID/Info : Advanced Video Coding
Duration : 1 h 28 min
Bit rate : 1 400 kb/s
Width : 640 pixels
Height : 480 pixels
Display aspect ratio : 4:3
Frame rate mode: Constant
Frame rate: 30.000 FPS
Color space : YUV
Chroma subsampling  : 4:2:0
Bit depth : 8 bits
Scan type : Progressive
Bits/(Pixel*Frame)  : 0.152
Stream size : 884 MiB (93%)
Language : Japanese
Codec configuration box  : avcC

Audio
ID: 2
Format : AAC LC
Format/Info : Advanced Audio Codec Low Complexity
Codec ID : mp4a-40-2
Duration : 1 h 28 min
Bit rate mode : Variable
Bit rate : 96.0 kb/s
Maximum bit rate: 108 kb/s
Channel(s): 2 channels
Channel layout : L R
Sampling rate : 44.1 kHz
Frame rate: 43.066 FPS (1024 SPF)
Compression mode: Lossy
Stream size : 60.5 MiB (6%)
Language : Japanese
Default: Yes
Alternate group: 1

YouTube Video:
Category:Adult XXX
Language:Japanese  Japanese
Total Size:949.91 MB
Info Hash:C9926BD2D794FD393F44A9BE0817763416E6EAAD
Added By:jerryortom
Date Added:2020-10-15 17:37:05
Torrent Status:Torrent Verified by Prom3th3uS Super Administrator on 15th October, 2020


Ratings:Not Yet Rated (Log in to rate it)


Tracker:
udp://tracker.pirateparty.gr:6969/announce

This Torrent also has backup trackers
URLSeedersLeechersCompleted
udp://tracker.pirateparty.gr:6969/announce000
http://sukebei.tracker.wf:8888/announce19738
udp://9.rarbg.to:2900/announce000
udp://tracker.cyberia.is:6969/announce10325
http://open.acgtracker.com:1096/announce141
http://open.acgnxtracker.com/announce000
http://tracker1.itzmx.com:8080/announce323514
udp://tracker.leechers-paradise.org:6969/announce12516
udp://tracker.opentrackr.org:1337/announce231236
udp://open.stealth.si:80/announce25741
udp://exodus.desync.com:6969/announce20633
udp://tracker.coppersurfer.tk:6969/announce000


File List: 





Comments
No comments still posted