Download Krack (2021) 1080p Telugu DVDScr x264 MP3 2 3GB [A1Rip] torrent - GloDLS
Torrent Details For "Krack (2021) 1080p Telugu DVDScr x264 MP3 2 3GB [A1Rip]"

Krack (2021) 1080p Telugu DVDScr x264 MP3 2 3GB [A1Rip]

To download this torrent, you need a BitTorrent client: Vuze or BTGuard
Download this torrent
Download using Magnet Link

Health:
Seeds: 377
Leechers: 401
Completed: 615 
Last Checked: 12-01-2021 11:38:23

Uploader Reputation points : 6666
External: Torrent






Write a Review for the Uploader:   100   Say Thanks with one good review:
Share on Facebook


Details
Name:Krack (2021) 1080p Telugu DVDScr x264 MP3 2 3GB [A1Rip]
Description:
Krack (2021) 1080p Telugu DVDScr x264 MP3





General
Unique ID                      : 173773095176855017196949897583789974317 (0x82BB7B12A0DA831BADFC66F5BEFDA32D)
Format                         : Matroska
Format version                 : Version 4
File size                      : 2.39 GiB
Duration                       : 2 h 28 min
Overall bit rate               : 2 314 kb/s
Encoded date                   : UTC 2021-01-09 23:59:28
Writing application            : mkvmerge v8.2.0 ('World of Adventure') 64bit
Writing library                : libebml v1.3.1 + libmatroska v1.4.2

Video
ID                             : 1
Format                         : AVC
Format/Info                    : Advanced Video Codec
Format profile                 : [email protected]
Format settings                : CABAC / 4 Ref Frames
Format settings, CABAC         : Yes
Format settings, Reference fra : 4 frames
Codec ID                       : V_MPEG4/ISO/AVC
Duration                       : 2 h 28 min
Bit rate                       : 2 184 kb/s
Width                          : 1 920 pixels
Height                         : 816 pixels
Display aspect ratio           : 2.35:1
Frame rate mode                : Constant
Frame rate                     : 23.976 FPS
Color space                    : YUV
Chroma subsampling             : 4:2:0
Bit depth                      : 8 bits
Scan type                      : Progressive
Bits/(Pixel*Frame)             : 0.058
Stream size                    : 2.26 GiB (94%)
Writing library                : x264 core 155 r2893 b00bcaf
Encoding settings              : cabac=1 / ref=2 / deblock=1:0:0 / analyse=0x3:0x113 / me=hex / subme=4 / psy=1 / psy_rd=1.00:0.00 / mixed_ref=0 / me_range=16 / chroma_me=1 / trellis=1 / 8x8dct=1 / cqm=0 / deadzone=21,11 / fast_pskip=1 / chroma_qp_offset=0 / threads=25 / lookahead_threads=6 / sliced_threads=0 / nr=0 / decimate=1 / interlaced=0 / bluray_compat=0 / constrained_intra=0 / bframes=3 / b_pyramid=2 / b_adapt=1 / b_bias=0 / direct=1 / weightb=1 / open_gop=0 / weightp=1 / keyint=240 / keyint_min=24 / scenecut=40 / intra_refresh=0 / rc_lookahead=20 / rc=abr / mbtree=1 / bitrate=2184 / ratetol=1.0 / qcomp=0.60 / qpmin=0 / qpmax=69 / qpstep=4 / ip_ratio=1.40 / aq=1:1.00
Default                        : Yes
Forced                         : No
Color range                    : Limited
Color primaries                : BT.709
Transfer characteristics       : BT.709
Matrix coefficients            : BT.709

Audio
ID                             : 2
Format                         : MPEG Audio
Format version                 : Version 1
Format profile                 : Layer 3
Format settings                : Joint stereo / MS Stereo
Codec ID                       : A_MPEG/L3
Codec ID/Hint                  : MP3
Duration                       : 2 h 28 min
Bit rate mode                  : Constant
Bit rate                       : 128 kb/s
Channel(s)                     : 2 channels
Sampling rate                  : 48.0 kHz
Frame rate                     : 41.667 FPS (1152 SPF)
Compression mode               : Lossy
Delay relative to video        : -21 ms
Stream size                    : 236 KiB (0%)
Writing library                : LAME3.99r
Encoding settings              : -m j -V 4 -q 3 -lowpass 17 -b 128
Language                       : Telugu
Default                        : Yes
Forced                         : No

Source: cinevez, 4movierulz
YouTube Video:
Category:Movies
Language:Telugu
Total Size:2.39 GB
Info Hash:CCA2114894950DB6A4E0F0FCE08C6BFA60D660A3
Added By:Prom3th3uS Super Administrator
Date Added:2021-01-12 03:53:40
Torrent Status:Torrent Verified


Ratings:Not Yet Rated (Log in to rate it)


Tracker:
udp://opentor.org:2710/announce

This Torrent also has backup trackers
URLSeedersLeechersCompleted
udp://opentor.org:2710/announce5468151
udp://p4p.arenabg.com:1337/announce292725
udp://tracker.torrent.eu.org:451/announce343755
udp://tracker.cyberia.is:6969/announce303242
udp://9.rarbg.to:2710/announce000
udp://exodus.desync.com:6969/announce293237
udp://explodie.org:6969/announce10180
udp://tracker.moeking.me:6969/announce293458
udp://tracker.opentrackr.org:1337/announce313053
udp://tracker.tiny-vps.com:6969/announce393653
udp://ipv4.tracker.harry.lu:80/announce11170
http://tracker.foreverpirates.co:80/announce393366
udp://tracker.leechers-paradise.org:6969/announce000
udp://open.stealth.si:80/announce313458
udp://tracker.internetwarriors.net:1337/announce11317


File List: 





Comments
No comments still posted