Download Laal Ishq (2016) Marathi 720p AMZN WEBRip AAC DD-5 1 [900 MB] x264 - Shadow (UncutHD) torrent - GloDLS
Torrent Details For "Laal Ishq (2016) Marathi 720p AMZN WEBRip AAC DD-5 1 [900 MB] x264 - Shadow (UncutHD)"

Laal Ishq (2016) Marathi 720p AMZN WEBRip AAC DD-5 1 [900 MB] x264 - Shadow (UncutHD)

To download this torrent, you need a BitTorrent client: Vuze or BTGuard
Download this torrent
Download using Magnet Link

Health:
Seeds: 171
Leechers: 61
Completed: 339 
Last Checked: 13-02-2020 22:10:57

Uploader Reputation points : 308
External: Torrent






Write a Review for the Uploader:   0   Say Thanks with one good review:
Share on Facebook


Details
Name:Laal Ishq (2016) Marathi 720p AMZN WEBRip AAC DD-5 1 [900 MB] x264 - Shadow (UncutHD)
Description:
[/center]

Movie name :

Laal Ishq (2016) Marathi 720p AMZN WEBRip AAC DD-5.1 [900 MB] x264 - Shadow (UncutHD)


Quote:

Storyline : Two angels, Black and White, come down to Earth and spy in on the lives of a eclectic bunch of yuppies in order to decide humanity's fate.

Release date :  27 May 2016 (India)

File size : 900 MB

Encoded by ⭐UncutHD⭐

Source :- Shadow












General
Unique ID                                : 315242799742698928330963190117154912615 (0xED298E05E9312277201527DEE5177967)
Complete name                            : Laal Ishq (2016) Marathi 720p WEBRip AAC DD-5.1 x264.mkv
Format                                   : Matroska
Format version                           : Version 2
File size                                : 919 MiB
Duration                                 : 1 h 56 min
Overall bit rate                         : 1 108 kb/s
Encoded date                             : UTC 2020-02-13 11:11:41
Writing application                      : mkvmerge v42.0.0 ('Overtime') 64-bit
Writing library                          : libebml v1.3.10 + libmatroska v1.5.2

Video
ID                                       : 1
Format                                   : AVC
Format/Info                              : Advanced Video Codec
Format profile                           : [email protected]
Format settings                          : CABAC / 4 Ref Frames
Format settings, CABAC                   : Yes
Format settings, Reference frames        : 4 frames
Codec ID                                 : V_MPEG4/ISO/AVC
Duration                                 : 1 h 56 min
Bit rate                                 : 978 kb/s
Width                                    : 1 280 pixels
Height                                   : 544 pixels
Display aspect ratio                     : 2.35:1
Frame rate mode                          : Constant
Frame rate                               : 24.000 FPS
Color space                              : YUV
Chroma subsampling                       : 4:2:0
Bit depth                                : 8 bits
Scan type                                : Progressive
Bits/(Pixel*Frame)                       : 0.059
Stream size                              : 811 MiB (88%)
Writing library                          : x264 core 157 r2969 d4099dd
Encoding settings                        : cabac=1 / ref=3 / deblock=1:0:0 / analyse=0x3:0x113 / me=hex / subme=7 / psy=1 / psy_rd=1.00:0.00 / mixed_ref=1 / me_range=16 / chroma_me=1 / trellis=1 / 8x8dct=1 / cqm=0 / deadzone=21,11 / fast_pskip=1 / chroma_qp_offset=-2 / threads=6 / lookahead_threads=1 / sliced_threads=0 / nr=0 / decimate=1 / interlaced=0 / bluray_compat=0 / constrained_intra=0 / bframes=3 / b_pyramid=2 / b_adapt=1 / b_bias=0 / direct=1 / weightb=1 / open_gop=0 / weightp=2 / keyint=240 / keyint_min=24 / scenecut=40 / intra_refresh=0 / rc_lookahead=40 / rc=crf / mbtree=1 / crf=23.0 / qcomp=0.60 / qpmin=0 / qpmax=69 / qpstep=4 / ip_ratio=1.40 / aq=1:1.00
Default                                  : Yes
Forced                                   : No

Audio
ID                                       : 2
Format                                   : AAC Main
Format/Info                              : Advanced Audio Codec
Codec ID                                 : A_AAC-1
Duration                                 : 1 h 56 min
Bit rate                                 : 128 kb/s
Channel(s)                               : 6 channels
Channel layout                           : C L R Ls Rs LFE
Sampling rate                            : 48.0 kHz
Frame rate                               : 46.875 FPS (1024 SPF)
Compression mode                         : Lossy
Stream size                              : 106 MiB (12%)
Language                                 : Marathi
Default                                  : Yes
Forced                                   : No


YouTube Video:
Category:Movies
Language:Hindi  Hindi
Total Size:919.08 MB
Info Hash:5A94C47B16AAEE75F90447FFFCA59B4825E8353A
Added By:trueHD
Date Added:2020-02-13 22:56:49
Torrent Status:Torrent Verified by Prom3th3uS Super Administrator on 13th February, 2020


Ratings:Not Yet Rated (Log in to rate it)


Tracker:
udp://tracker.coppersurfer.tk:6969/announce

This Torrent also has backup trackers
URLSeedersLeechersCompleted
udp://tracker.coppersurfer.tk:6969/announce000
udp://tracker.opentrackr.org:1337/announce341369
udp://tracker.cyberia.is:6969/announce1568
udp://tracker.leechers-paradise.org:6969/announce25856
udp://tracker.tiny-vps.com:6969/announce19625
udp://9.rarbg.com:2710/announce19655
udp://p4p.arenabg.com:1337/announce19530
udp://tracker.pirateparty.gr:6969/announce401796
udp://9.rarbg.me:2770/announce000
udp://zer0day.ch:1337/announce000
udp://zer0day.to:1337/announce000
udp://tracker.flashtorrents.org:6969/announce000


File List: 





Comments
No comments still posted