Login
Username:
Password:
Remember Me:
[Signup]
[Recover Account]
Friends
BTScene
Friendly site

Ale Torrenty Team
Friendly site

Anime RG
Friendly site

KaranPC
Friendly site

P2PDL.com
Friendly site

Free Tutorials & Courses
Friendly site
Torrent Details For "Les.Habitants.2016.FRENCH.720p.BluRay.x264-FiDELiO[PRiME]"

Les.Habitants.2016.FRENCH.720p.BluRay.x264-FiDELiO[PRiME]

To download this torrent, you need a BitTorrent client: Vuze or BTGuard
Download this torrent
Download using Magnet Link

Direct Download - no client needed

Download Faster - High Speed Download

Health:
Seeds: 14
Leechers: 52
Completed:
Last Checked: 11-01-2017 22:45:21

Uploader Reputation points : 108650
External: Torrent




Write a Review for the Uploader:   55   Say Thanks with one good review:
Share on Facebook


Details
Name:Les.Habitants.2016.FRENCH.720p.BluRay.x264-FiDELiO[PRiME]
Description:

Les.Habitants.2016.FRENCH.720p.BluRay.x264-FiDELiO[PRiME]

ImDb: http://www.imdb.com/title/tt4857622



Complete name                            : les.habitants.2016.french.720p.bluray.x264-fidelio[PRiME].mkv
Format                                   : Matroska
Format version                           : Version 4 / Version 2
File size                                : 4.37 GiB
Duration                                 : 1 h 23 min
Overall bit rate                         : 7 473 kb/s
Encoded date                             : UTC 2010-02-22 21:41:29
Writing application                      : no_variable_data
Writing library                          : no_variable_data / Lavf57.47.101

Video
ID                                       : 1
Format                                   : AVC
Format/Info                              : Advanced Video Codec
Format profile                           : [email protected]
Format settings, CABAC                   : Yes
Format settings, ReFrames                : 12 frames
Codec ID                                 : V_MPEG4/ISO/AVC
Duration                                 : 1 h 23 min
Bit rate                                 : 5 963 kb/s
Width                                    : 1 280 pixels
Height                                   : 536 pixels
Display aspect ratio                     : 2.40:1
Frame rate mode                          : Constant
Frame rate                               : 24.000 FPS
Color space                              : YUV
Chroma subsampling                       : 4:2:0
Bit depth                                : 8 bits
Scan type                                : Progressive
Bits/(Pixel*Frame)                       : 0.362
Stream size                              : 3.40 GiB (78%)
Writing library                          : x264 core 148 r2744 b97ae06
Encoding settings                        : cabac=1 / ref=12 / deblock=1:0:0 / analyse=0x3:0x133 / me=umh / subme=10 / psy=1 / psy_rd=1.00:0.00 / mixed_ref=1 / me_range=24 / chroma_me=1 / trellis=2 / 8x8dct=1 / cqm=0 / deadzone=21,11 / fast_pskip=1 / chroma_qp_offset=-2 / threads=17 / lookahead_threads=2 / sliced_threads=0 / nr=0 / decimate=1 / interlaced=0 / bluray_compat=0 / constrained_intra=0 / bframes=8 / b_pyramid=2 / b_adapt=2 / b_bias=0 / direct=3 / weightb=1 / open_gop=0 / weightp=2 / keyint=250 / keyint_min=24 / scenecut=40 / intra_refresh=0 / rc_lookahead=60 / rc=2pass / mbtree=1 / bitrate=5963 / ratetol=1.0 / qcomp=0.60 / qpmin=0 / qpmax=69 / qpstep=4 / cplxblur=20.0 / qblur=0.5 / ip_ratio=1.40 / aq=1:1.00
Default                                  : Yes
Forced                                   : No
Statistics Tags Issue                    : no_variable_data 1970-01-01 00:00:00 / no_variable_data 2010-02-22 21:41:29
FromStats_BitRate                        : 5961881
FromStats_Duration                       : 01:23:45.084000000
FromStats_FrameCount                     : 120602
FromStats_StreamSize                     : 3744869527

Audio
ID                                       : 2
Format                                   : DTS
Format/Info                              : Digital Theater Systems
Mode                                     : 16
Format settings, Endianness              : Big
Codec ID                                 : A_DTS
Duration                                 : 1 h 23 min
Bit rate mode                            : Constant
Bit rate                                 : 1 509 kb/s
Channel(s)                               : 6 channels
Channel positions                        : Front: L C R, Side: L R, LFE
Sampling rate                            : 48.0 kHz
Frame rate                               : 93.750 FPS (512 spf)
Bit depth                                : 24 bits
Compression mode                         : Lossy
Stream size                              : 904 MiB (20%)
Title                                    : French audio
Language                                 : French
Default                                  : Yes
Forced                                   : No
Statistics Tags Issue                    : no_variable_data 1970-01-01 00:00:00 / no_variable_data 2010-02-22 21:41:29
FromStats_BitRate                        : 1508999
FromStats_Duration                       : 01:23:44.054000000
FromStats_FrameCount                     : 471005
FromStats_StreamSize                     : 947662060

Text
ID                                       : 3
Format                                   : UTF-8
Codec ID                                 : S_TEXT/UTF8
Codec ID/Info                            : UTF-8 Plain Text
Title                                    : French SDH
Language                                 : French
Default                                  : No
Forced                                   : No
Statistics Tags Issue                    : no_variable_data 1970-01-01 00:00:00 / no_variable_data 2010-02-22 21:41:29
FromStats_BitRate                        : 85
FromStats_Duration                       : 01:23:37.542000000
FromStats_FrameCount                     : 1308
FromStats_StreamSize                     : 53804

Menu
00:00:00.000                             : en:00:00:00.000
00:20:30.750                             : en:00:20:30.750
00:38:19.083                             : en:00:38:19.083
00:50:37.542                             : en:00:50:37.542
01:11:21.750                             : en:01:11:21.750




Click Image To View Full Size


Click To View Screenshot
Click To View Screenshot
Click To View Screenshot

YouTube Video:
Category:Movies
Language:English  English
Total Size:4.42 GB
Info Hash:B6122153918F08863384EF4FD51D8ECDE3146AF6
Added By:Simmoncelli VIPMovie Pirate
Date Added:11-01-2017 22:09:29
Torrent Status:Torrent Verified


Ratings:Not Yet Rated (Log in to rate it)


Tracker:
udp://tracker.ilibr.org:6969/announce

This Torrent also has backup trackers
URLSeedersLeechersCompleted
udp://tracker.ilibr.org:6969/announce100
udp://tracker.coppersurfer.tk:6969240
udp://tracker.ilibr.org:80/announce100
udp://tracker.coppersurfer.tk:6969/announce270
udp://tracker.leechers-paradise.org:6969/announce240
udp://tracker.opentrackr.org:1337/announce260
udp://tracker.zer0day.to:1337/announce160
udp://ipv4.tracker.harry.lu:80/announce140
udp://p4p.arenabg.ch:1337/announce140
udp://p4p.arenabg.com:1337/announce140
udp://9.rarbg.com:2710/announce140
udp://9.rarbg.to:2710/announce140
udp://9.rarbg.me:2710/announce140
udp://explodie.org:6969/announce150
udp://eddie4.nl:6969/announce240


File List: 





Comments
No comments still posted