Download Loving Ibiza-Verliefd op Ibiza (2013) ITA-GER Ac3 5 1 BDRip 1080p H264 [ArMor] torrent - GloDLS
Torrent Details For "Loving Ibiza-Verliefd op Ibiza (2013) ITA-GER Ac3 5 1 BDRip 1080p H264 [ArMor]"

Loving Ibiza-Verliefd op Ibiza (2013) ITA-GER Ac3 5 1 BDRip 1080p H264 [ArMor]

To download this torrent, you need a BitTorrent client: Vuze or BTGuard
Download this torrent
Download using Magnet Link

Health:
Seeds: 0
Leechers: 0
Completed:
Last Checked: 20-11-2020 14:11:46

Uploader Reputation points : 984
External: Torrent






Write a Review for the Uploader:   0   Say Thanks with one good review:
Share on Facebook


Details
Name:Loving Ibiza-Verliefd op Ibiza (2013) ITA-GER Ac3 5 1 BDRip 1080p H264 [ArMor]
Description:








Titolo originale Verliefd op Ibiza
Data di uscita nd (Italia)
Genere Commedia , Romantico
Anno 2013
Regia Johan Nijenhuis
Paese Olanda
Durata 112 Min



Willeke van Ammelrooy, Jim Bakkum, Rick Engelkes, Kim Feenstra, Jasper Gottlieb, Marius Gottlieb, Simone Kleinsma, Lone van Roosendaal, Gigi Ravelli



Una vacanza a Ibiza con tante feste. Una parte di una famiglia vive sull'isola e il resto è in visita e questo provoca molto dramma.



A vacation to Ibiza with a lot of parties. A part of a family lives on the island and the rest is visiting and that causes a lot of drama.












General
Unique ID                                : 213096486251880168715574730143864303623 (0xA050E3F0B488141397A97EFA5809B007)
Complete name                            : Loving Ibiza-Verliefd op Ibiza (2013) ITA-GER Ac3 5.1 BDRip 1080p H264 [ArMor].mkv
Format                                   : Matroska
Format version                           : Version 4
File size                                : 4.59 GiB
Duration                                 : 1 h 52 min
Overall bit rate                         : 5 872 kb/s
Encoded date                             : UTC 2020-11-19 13:30:36
Writing application                      : mkvmerge v15.0.0 ('Duel with the Devil') 64-bit
Writing library                          : libebml v1.3.5 + libmatroska v1.4.5 / Lavf58.29.100

Video
ID                                       : 1
Format                                   : AVC
Format/Info                              : Advanced Video Codec
Format profile                           : [email protected]
Format settings                          : CABAC / 4 Ref Frames
Format settings, CABAC                   : Yes
Format settings, Reference frames        : 4 frames
Codec ID                                 : V_MPEG4/ISO/AVC
Duration                                 : 1 h 52 min
Bit rate                                 : 5 000 kb/s
Width                                    : 1 920 pixels
Height                                   : 1 080 pixels
Display aspect ratio                     : 16:9
Frame rate mode                          : Constant
Frame rate                               : 25.000 FPS
Color space                              : YUV
Chroma subsampling                       : 4:2:0
Bit depth                                : 8 bits
Scan type                                : Progressive
Bits/(Pixel*Frame)                       : 0.096
Stream size                              : 3.89 GiB (85%)
Writing library                          : x264 core 157 r2935 545de2f
Encoding settings                        : cabac=1 / ref=2 / deblock=1:0:0 / analyse=0x1:0x111 / me=hex / subme=6 / psy=1 / psy_rd=1.00:0.00 / mixed_ref=1 / me_range=16 / chroma_me=1 / trellis=1 / 8x8dct=0 / cqm=0 / deadzone=21,11 / fast_pskip=1 / chroma_qp_offset=-2 / threads=18 / lookahead_threads=3 / sliced_threads=0 / nr=0 / decimate=1 / interlaced=0 / bluray_compat=0 / constrained_intra=0 / bframes=3 / b_pyramid=2 / b_adapt=1 / b_bias=0 / direct=1 / weightb=1 / open_gop=0 / weightp=1 / keyint=250 / keyint_min=25 / scenecut=40 / intra_refresh=0 / rc_lookahead=30 / rc=abr / mbtree=1 / bitrate=5000 / ratetol=1.0 / qcomp=0.60 / qpmin=0 / qpmax=69 / qpstep=4 / vbv_maxrate=20000 / vbv_bufsize=25000 / nal_hrd=none / filler=0 / ip_ratio=1.40 / aq=1:1.00
Default                                  : Yes
Forced                                   : No
Color range                              : Limited
Color primaries                          : BT.709
Transfer characteristics                 : BT.709
Matrix coefficients                      : BT.709

Audio #1
ID                                       : 2
Format                                   : AC-3
Format/Info                              : Audio Coding 3
Commercial name                          : Dolby Digital
Codec ID                                 : A_AC3
Duration                                 : 1 h 52 min
Bit rate mode                            : Constant
Bit rate                                 : 448 kb/s
Channel(s)                               : 6 channels
Channel layout                           : L R C LFE Ls Rs
Sampling rate                            : 48.0 kHz
Frame rate                               : 31.250 FPS (1536 SPF)
Compression mode                         : Lossy
Stream size                              : 359 MiB (8%)
Title                                    : WEBDL EAC3
Language                                 : Italian
Service kind                             : Complete Main
Default                                  : Yes
Forced                                   : No

Audio #2
ID                                       : 3
Format                                   : AC-3
Format/Info                              : Audio Coding 3
Commercial name                          : Dolby Digital
Codec ID                                 : A_AC3
Duration                                 : 1 h 52 min
Bit rate mode                            : Constant
Bit rate                                 : 448 kb/s
Channel(s)                               : 6 channels
Channel layout                           : L R C LFE Ls Rs
Sampling rate                            : 48.0 kHz
Frame rate                               : 31.250 FPS (1536 SPF)
Compression mode                         : Lossy
Stream size                              : 359 MiB (8%)
Title                                    : DTS
Language                                 : German
Service kind                             : Complete Main
Default                                  : No
Forced                                   : No




YouTube Video:
Category:Movies
Language:Italian  Italian
Total Size:4.59 GB
Info Hash:5CFD39E5B758A69D97B27B4853E37DFA34A34160
Added By:ArMor1 Verified Uploader
Date Added:2020-11-20 22:11:43
Torrent Status:Torrent Verified


Ratings:Not Yet Rated (Log in to rate it)


Tracker:
udp://tracker.coppersurfer.tk:6969/announce

This Torrent also has backup trackers
URLSeedersLeechersCompleted
udp://tracker.coppersurfer.tk:6969/announce000
udp://tracker.leechers-paradise.org:6969/announce000
udp://9.rarbg.to:2710/announce000
udp://exodus.desync.com:6969/announce000
udp://tracker.uw0.xyz:6969/announce000
udp://open.stealth.si:80/announce000
udp://tracker.tiny-vps.com:6969/announce000
udp://open.demonii.si:1337/announce000
udp://tracker.cyberia.is:6969/announce000
udp://tracker.kamigami.org:2710/announce000
udp://opentor.org:2710/announce[/fo000
udp://opentracker.i2p.rocks:6969/announce000
udp://tracker.zerobytes.xyz:1337/announce000
udp://aaa.army:8866/announce000
udp://tracker2.dler.org:80/announce000


File List: 





Comments
No comments still posted