Download Luv Ka the End 2011 Hindi 720p WEB-DL x264 AAC { TaRa } mkv torrent - GloDLS
Torrent Details For "Luv Ka the End 2011 Hindi 720p WEB-DL x264 AAC { TaRa } mkv"

Luv Ka the End 2011 Hindi 720p WEB-DL x264 AAC { TaRa } mkv

To download this torrent, you need a BitTorrent client: Vuze or BTGuard
Download this torrent
Download using Magnet Link

Health:
Seeds: 19
Leechers: 4
Completed: 1,355 
Last Checked: 08-10-2019 20:23:16

Uploader Reputation points : 538
External: Torrent






Write a Review for the Uploader:   0   Say Thanks with one good review:
Share on Facebook


Details
Name:Luv Ka the End 2011 Hindi 720p WEB-DL x264 AAC { TaRa } mkv
Description:

Luv Ka the End 2011 Hindi 720p WEB-DL x264 AAC { TaRa }.mkv


===================================================================
General
Complete name               : Luv Ka the End 2011 Hindi 720p WEB-DL x264 AAC { TaRa }.mkv
Format                      : Matroska
Format version              : Version 4
File size                   : 1.59 GiB
Duration                    : 1 h 46 min
Overall bit rate            : 2 131 kb/s
===================================================================
Video
ID                          : 1
Format                      : AVC
Format/Info                 : Advanced Video Codec
Format profile              : [email protected]
Format settings             : CABAC / 4 Ref Frames
Format settings, CABAC      : Yes
Format settings, Reference  : 4 frames
Codec ID                    : V_MPEG4/ISO/AVC
Duration                    : 1 h 46 min
Bit rate                    : 2 000 kb/s
Width                       : 1 280 pixels
Height                      : 544 pixels
Display aspect ratio        : 2.35:1
Frame rate mode             : Constant
Frame rate                  : 23.976 (23976/1000) FPS
Color space                 : YUV
Chroma subsampling          : 4:2:0
Bit depth                   : 8 bits
Scan type                   : Progressive
Bits/(Pixel*Frame)          : 0.120
Stream size                 : 1.49 GiB (94%)
Title                       : .....::::: TaRa :::::.....
Language                    : Hindi
Default                     : Yes
Forced                      : No
===================================================================
Audio
ID                          : 2
Format                      : AAC LC
Format/Info                 : Advanced Audio Codec Low Complexity
Codec ID                    : A_AAC-2
Duration                    : 1 h 46 min
Bit rate                    : 129 kb/s
Channel(s)                  : 2 channels
Channel layout              : L R
Sampling rate               : 48.0 kHz
Frame rate                  : 46.875 FPS (1024 SPF)
Compression mode            : Lossy
Delay relative to video     : -21 ms
Stream size                 : 98.1 MiB (6%)
Title                       : .....::::: TaRa :::::.....
Language                    : Hindi
Default                     : Yes
Forced                      : No
===================================================================




































YouTube Video:
Category:Movies
Language:Hindi  Hindi
Total Size:1.59 GB
Info Hash:4204F42473BB5243C77C993B3D48770142E47864
Added By:SkTaRa Verified UploaderMovie Pirate
Date Added:2019-08-14 00:57:20
Torrent Status:Torrent Verified


Ratings:Not Yet Rated (Log in to rate it)


Tracker:
udp://tracker.coppersurfer.tk:6969/announce

This Torrent also has backup trackers
URLSeedersLeechersCompleted
udp://tracker.coppersurfer.tk:6969/announce30450
udp://tracker.leechers-paradise.org:6969/announce2110
udp://bt.xxx-tracker.com:2710/announce000
udp://tracker.internetwarriors.net:1337/announce1015
udp://tracker.openbittorrent.com:80/announce1310
udp://explodie.org:6969/announce000
udp://tracker.opentrackr.org:1337/announce10226
udp://tracker.tiny-vps.com:6969/announce200
udp://open.demonii.si:1337/announce10139
udp://tracker.torrent.eu.org:451/announce105
udp://tracker.pirateparty.gr:6969/announce30450
udp://ipv4.tracker.harry.lu:80/announce000
udp://tracker.cyberia.is:6969/announce1015
udp://9.rarbg.to:2710/announce200
udp://denis.stalker.upeer.me:6969/announce1035


File List: 





Comments
No comments still posted