Login
Username:
Password:
Remember Me:
[Signup]
[Recover Account]
Friends
BTScene
Friendly site

Ale Torrenty Team
Friendly site

Anime RG
Friendly site

KaranPC
Friendly site

P2PDL.com
Friendly site
Torrent Details For "Max.Steel.2016.HDRip.AAC.2CH.x265.HEVC-GunGravE[PRiME]"

Max.Steel.2016.HDRip.AAC.2CH.x265.HEVC-GunGravE[PRiME]

To download this torrent, you need a BitTorrent client: Vuze or BTGuard
Download this torrent
Download using Magnet Link

Direct Download - no client needed

Download Faster - High Speed Download

Health:
Seeds: 99
Leechers: 857
Completed: 113 
Last Checked: 18-12-2016 23:00:26

Uploader Reputation points : 89456
External: Torrent




Write a Review for the Uploader:   40   Say Thanks with one good review:
Share on Facebook


Details
Name:Max.Steel.2016.HDRip.AAC.2CH.x265.HEVC-GunGravE[PRiME]
Description:

Max.Steel.2016.HDRip.AAC.2CH.x265.HEVC-GunGravE[PRiME]

ImDb: http://www.imdb.com/title/tt1472584



Complete name                            : Max.Steel.2016.HDRip.AAC.2CH.x265.HEVC-GunGravE[PRiME].mkv
Format                                   : Matroska
Format version                           : Version 4 / Version 2
File size                                : 390 MiB
Duration                                 : 1 h 31 min
Overall bit rate                         : 596 kb/s
Encoded date                             : UTC 2016-12-18 21:46:58
Writing application                      : mkvmerge v9.6.0 ('Slave To Your Mind') 64bit
Writing library                          : libebml v1.3.4 + libmatroska v1.4.5

Video
ID                                       : 1
Format                                   : HEVC
Format/Info                              : High Efficiency Video Coding
Format profile                           : [email protected]@Main
Codec ID                                 : V_MPEGH/ISO/HEVC
Duration                                 : 1 h 31 min
Bit rate                                 : 496 kb/s
Width                                    : 720 pixels
Height                                   : 304 pixels
Display aspect ratio                     : 2.35:1
Frame rate mode                          : Constant
Frame rate                               : 25.000 FPS
Color space                              : YUV
Chroma subsampling                       : 4:2:0
Bit depth                                : 8 bits
Bits/(Pixel*Frame)                       : 0.091
Stream size                              : 325 MiB (83%)
Writing library                          : x265 2.1+4-e919ca9dd504:[Linux][GCC 5.4.0][64 bit] 8bit
Encoding settings                        : wpp / ctu=64 / min-cu-size=8 / max-tu-size=32 / tu-intra-depth=1 / tu-inter-depth=1 / me=1 / subme=2 / merange=57 / no-rect / no-amp / max-merge=2 / temporal-mvp / no-early-skip / rskip / rdpenalty=0 / no-tskip / no-tskip-fast / strong-intra-smoothing / no-lossless / no-cu-lossless / no-constrained-intra / no-fast-intra / open-gop / no-temporal-layers / interlace=0 / keyint=250 / min-keyint=25 / scenecut=40 / rc-lookahead=20 / lookahead-slices=0 / bframes=4 / bframe-bias=0 / b-adapt=2 / ref=3 / limit-refs=3 / no-limit-modes / weightp / no-weightb / aq-mode=1 / qg-size=32 / aq-strength=1.00 / cbqpoffs=0 / crqpoffs=0 / rd=3 / psy-rd=2.00 / rdoq-level=0 / psy-rdoq=0.00 / log2-max-poc-lsb=8 / no-rd-refine / signhide / deblock=0:0 / sao / no-sao-non-deblock / b-pyramid / cutree / no-intra-refresh / rc=abr / bitrate=498 / qcomp=0.60 / qpmin=0 / qpmax=69 / qpstep=4 / ipratio=1.40 / pbratio=1.30
Default                                  : Yes
Forced                                   : No

Audio
ID                                       : 2
Format                                   : AAC
Format/Info                              : Advanced Audio Codec
Format profile                           : LC
Codec ID                                 : A_AAC
Duration                                 : 1 h 31 min
Bit rate                                 : 96.0 kb/s
Channel(s)                               : 2 channels
Channel positions                        : Front: L R
Sampling rate                            : 48.0 kHz
Frame rate                               : 46.875 FPS (1024 spf)
Compression mode                         : Lossy
Delay relative to video                  : -40 ms
Stream size                              : 63.7 MiB (16%)
Default                                  : Yes
Forced                                   : No




Click Image To View Full Size


Click To View Screenshot
Click To View Screenshot
Click To View Screenshot

YouTube Video:
Category:Movies
Language:English  English
Total Size:389.85 MB
Info Hash:F71E730092E17C8B315AEE3106301F53541400EC
Added By:Simmoncelli VIPMovie Pirate
Date Added:18-12-2016 22:03:02
Torrent Status:Torrent Verified


Ratings:Not Yet Rated (Log in to rate it)


Tracker:
udp://tracker.ilibr.org:6969/announce

This Torrent also has backup trackers
URLSeedersLeechersCompleted
udp://tracker.ilibr.org:6969/announce10786
udp://tracker.coppersurfer.tk:696910786
udp://tracker.ilibr.org:80/announce10786
udp://tracker.coppersurfer.tk:6969/announce10786
udp://tracker.leechers-paradise.org:6969/announce000
udp://tracker.opentrackr.org:1337/announce8746
udp://tracker.zer0day.to:1337/announce9756
udp://ipv4.tracker.harry.lu:80/announce6588
udp://p4p.arenabg.ch:1337/announce6655
udp://p4p.arenabg.com:1337/announce6655
udp://9.rarbg.com:2710/announce65418
udp://9.rarbg.to:2710/announce65418
udp://9.rarbg.me:2710/announce65418
udp://explodie.org:6969/announce6465
udp://eddie4.nl:6969/announce000


File List: 





Comments
No comments still posted