Download My Mix vol 3 (2019) M4A torrent - GloDLS
Torrent Details For "My Mix vol 3 (2019) M4A"

My Mix vol 3 (2019) M4A

To download this torrent, you need a BitTorrent client: Vuze or BTGuard
Download this torrent
Download using Magnet Link

Health:
Seeds: 0
Leechers: 29
Completed:
Last Checked: 11-10-2019 14:06:52

Uploader Reputation points : 838
External: Torrent






Write a Review for the Uploader:   5   Say Thanks with one good review:
Share on Facebook


Details
Name:My Mix vol 3 (2019) M4A
Description:
?

Quality-M4A
Release-2019
Duration-01:12:22
File Size-141.5 MB
Genre-Electronic
Cover Size-1400px

----------------------------------------------------------------------------------------------
Analyzed: My Mix vol.3 /  Artist: V.A
----------------------------------------------------------------------------------------------
DR Peak RMS Duration Title [codec]
----------------------------------------------------------------------------------------------
DR3 -0.00 dB -5.80 dB 3:58 01 - Amigo (Extended Mix) [None]
DR5 -0.00 dB -7.11 dB 3:14 02 - Sober (feat. Rae Sremmurd & Stanaj) [None]
DR5 -0.00 dB -6.89 dB 4:16 03 - Another Life (FT. Ester Dean Extended Mix) [None]
DR4 -0.00 dB -5.81 dB 3:20 04 - Diamonds (Original Mix) [None]
DR5 -0.00 dB -7.90 dB 7:01 05 - Safe Inside You (ft Betsie Larkin) [None]
DR8 -0.00 dB -12.36 dB 2:56 06 - Round Again ft.Sparcks (Original Mix) [None]
DR6 -0.00 dB -8.21 dB 10:48 07 - Beautiful Things (Gabriel & Dresden Unplugged Mix) [None]
DR8 -0.07 dB -13.32 dB 7:29 08 - Camels (Original Mix) [None]
DR5 -0.00 dB -7.59 dB 3:18 09 - Dancin Krono Remix [None]
DR5 -0.00 dB -8.31 dB 2:39 10 - Gin & Vodka [None]
DR8 -0.00 dB -12.02 dB 6:56 11 - GULA [None]
DR1 -0.00 dB -5.06 dB 3:18 12 - Losing Myself [None]
DR5 -0.00 dB -6.59 dB 3:24 13 - Mask Off [None]
DR5 -0.00 dB -6.76 dB 3:06 14 - Sweet but Psycho [None]
DR5 -0.00 dB -7.78 dB 6:33 15 - The Drill (Original Mix) [None]
----------------------------------------------------------------------------------------------
Number of files:    15
Official DR value:  DR5

Sampling rate: 44100 Hz
Average bitrate: 262kbs
Bits per sample: 16 bit
YouTube Video:
Category:Music
Language:Aucune/N/D
Total Size:134.98 MB
Info Hash:1A01E19EF1B368A77C81E03061A4AE156FF22BF3
Added By:was95was Verified UploaderMusic Lover
Date Added:2019-08-14 14:08:39
Torrent Status:Torrent Verified


Ratings:Not Yet Rated (Log in to rate it)


Tracker:
udp://tracker.piratepublic.com:1337/announce

This Torrent also has backup trackers
URLSeedersLeechersCompleted
udp://tracker.piratepublic.com:1337/announce000
udp://tracker.pirateparty.gr:6969/announce030
udp://tracker.coppersurfer.tk:6969/announce030
udp://tracker.leechers-paradise.org:6969/announce030
udp://9.rarbg.com:2710/announce030
http://p4p.arenabg.com:1337/announce000
http://explodie.org:6969/announce020
udp://tracker.opentrackr.org:1337/announce030
udp://exodus.desync.com:6969/announce020
udp://tracker.leechers-paradise.org:6969/announce030
udp://tracker.zer0day.to:1337/announce000
udp://open.demonii.si:1337/announce030
udp://exodus.desync.com:6969/announce020
udp://tracker.iamhansen.xyz:2000/announce020


File List: 





Comments
No comments still posted