Download My Mix vol 5 (2019) MP3-was95 torrent - GloDLS
Torrent Details For "My Mix vol 5 (2019) MP3-was95"

My Mix vol 5 (2019) MP3-was95

To download this torrent, you need a BitTorrent client: Vuze or BTGuard
Download this torrent
Download using Magnet Link

Health:
Seeds: 0
Leechers: 0
Completed:
Last Checked: 22-08-2019 16:30:05

Uploader Reputation points : 618
External: Torrent






Write a Review for the Uploader:   5   Say Thanks with one good review:
Share on Facebook


Details
Name:My Mix vol 5 (2019) MP3-was95
Description:


Quality-MP3
Release-2019
Duration-01:20:59
File Size-196 MB
Genre-Electronic
Cover Size-1400px

?----------------------------------------------------------------------------------------------
Analyzed: My Mix vol.5 /  Artist: Various Artists
----------------------------------------------------------------------------------------------
DR Peak RMS Duration Title [codec]
----------------------------------------------------------------------------------------------
DR4 -0.00 dB -7.88 dB 3:06 01 - Arrive [mp3]
DR5 -0.00 dB -8.32 dB 4:29 02 - Bloom [mp3]
DR3 -0.00 dB -6.87 dB 3:10 03 - Dance with Me [mp3]
DR3 -0.00 dB -5.69 dB 3:45 04 - Everything (Radio Edit) [mp3]
DR7 -0.00 dB -9.31 dB 3:04 05 - Freewheelin' (David Pietras Remix) [mp3]
DR5 -0.00 dB -8.49 dB 5:04 06 - Hier Encore [mp3]
DR4 -0.00 dB -7.15 dB 3:39 07 - Kisses Back (Tom Swoon & Indigo Remix) [mp3]
DR3 -0.00 dB -6.56 dB 4:36 08 - Lowdown [mp3]
DR4 -0.00 dB -7.25 dB 4:25 09 - Lyra [mp3]
DR5 -0.00 dB -8.50 dB 3:41 10 - Moving On [mp3]
DR4 -0.00 dB -6.60 dB 3:08 11 - On My Way [mp3]
DR3 -0.00 dB -6.08 dB 5:54 12 - People I Love (Club Mix) [mp3]
DR4 -0.00 dB -6.37 dB 3:20 13 - South Beach [mp3]
DR4 -0.00 dB -6.31 dB 4:24 14 - HELIX (Extended Mix) [mp3]
DR5 -0.00 dB -9.08 dB 4:07 15 - Only Reason (Extended Mix) [mp3]
DR3 -0.00 dB -5.28 dB 3:20 16 - Moments (Sick Individuals Remix) [mp3]
DR4 -0.00 dB -8.28 dB 3:06 17 - Pulse (Misha K Remix) [mp3]
DR5 -0.00 dB -7.21 dB 4:36 18 - I Dream (Original Mix) [mp3]
DR6 -0.00 dB -7.66 dB 9:49 19 - Love (Extended Disco Mix) [mp3]
----------------------------------------------------------------------------------------------
Number of files:    19
Official DR value:  DR4

Sampling rate: 44100 Hz
Average bitrate: 323kbs
Bits per sample: 16 bit
YouTube Video:
Category:Music
Language:Aucune/N/D
Total Size:187.46 MB
Info Hash:ED2F3DEF4A37F14057FDDC4F9AC4C4B06ABCE49D
Added By:was95was Verified UploaderMusic Lover
Date Added:2019-08-22 23:30:02
Torrent Status:Torrent Verified


Ratings:Not Yet Rated (Log in to rate it)


Tracker:
udp://tracker.piratepublic.com:1337/announce

This Torrent also has backup trackers
URLSeedersLeechersCompleted
udp://tracker.piratepublic.com:1337/announce000
udp://tracker.pirateparty.gr:6969/announce000
udp://tracker.coppersurfer.tk:6969/announce000
udp://tracker.leechers-paradise.org:6969/announce000
udp://9.rarbg.com:2710/announce000
http://p4p.arenabg.com:1337/announce000
http://explodie.org:6969/announce000
udp://tracker.opentrackr.org:1337/announce000
udp://exodus.desync.com:6969/announce000
udp://tracker.leechers-paradise.org:6969/announce000
udp://tracker.zer0day.to:1337/announce000
udp://open.demonii.si:1337/announce000
udp://exodus.desync.com:6969/announce000
udp://tracker.iamhansen.xyz:2000/announce000


File List: 





Comments
No comments still posted