Download Naked (2020) Hindi S01 [Ep1-10] Mx Original 720p WEB-DL x264 AAC 1 3GB [HDWebMovies] torrent - GloDLS
Torrent Details For "Naked (2020) Hindi S01 [Ep1-10] Mx Original 720p WEB-DL x264 AAC 1 3GB [HDWebMovies]"

Naked (2020) Hindi S01 [Ep1-10] Mx Original 720p WEB-DL x264 AAC 1 3GB [HDWebMovies]

To download this torrent, you need a BitTorrent client: Vuze or BTGuard
Download this torrent
Download using Magnet Link

Health:
Seeds: 826
Leechers: 418
Completed: 1,435 
Last Checked: 27-03-2020 00:37:48

Uploader Reputation points : 98
External: Torrent






Write a Review for the Uploader:   0   Say Thanks with one good review:
Share on Facebook


Details
Name:Naked (2020) Hindi S01 [Ep1-10] Mx Original 720p WEB-DL x264 AAC 1 3GB [HDWebMovies]
Description:




Movie name :

Naked (2020) Hindi S01 [Ep1-10] Mx Original 720p WEB-DL x264 AAC 1.3GB [HDWebMovies]


General
Format : Matroska
Format version : Version 4
File size : 1.31 GiB
Duration : 3 h 7 min
Overall bit rate : 1 005 kb/s
Writing application : Lavf58.29.100
Writing library : Lavf58.29.100
ErrorDetectionType : Per level 1

Video
ID : 1
Format : AVC
Format/Info : Advanced Video Codec
Format profile : [email protected]
Format settings : CABAC / 4 Ref Frames
Format settings, CABAC : Yes
Format settings, Reference frames : 4 frames
Codec ID : V_MPEG4/ISO/AVC
Duration : 3 h 7 min
Bit rate : 1 257 kb/s
Nominal bit rate : 904 kb/s
Width : 1 280 pixels
Height : 720 pixels
Display aspect ratio : 16:9
Frame rate mode : Constant
Frame rate : 25.000 FPS
Color space : YUV
Chroma subsampling : 4:2:0
Bit depth : 8 bits
Scan type : Progressive
Bits/(Pixel*Frame) : 0.055
Stream size : 1.64 GiB
Language : English
Default : Yes
Forced : No

Audio
ID : 2
Format : AAC LC
Format/Info : Advanced Audio Codec Low Complexity
Codec ID : A_AAC-2
Duration : 3 h 7 min
Bit rate : 64.2 kb/s
Channel(s) : 1 channel
Channel layout : C
Sampling rate : 44.1 kHz
Frame rate : 43.066 FPS (1024 SPF)
Compression mode : Lossy
Stream size : 85.9 MiB (6%)
Writing library : Lavc58.54.100 libfdk_aac
Language : English
Default : Yes
Forced : No











YouTube Video:
Category:TV
Language:Hindi  Hindi
Total Size:1.31 GB
Info Hash:B115C55D39AA3C92AFCBE6A231B656F990D493C9
Added By:Suryadipta Uploader
Date Added:2020-03-26 20:03:29
Torrent Status:Torrent Verified by Prom3th3uS Super Administrator on 26th March, 2020


Ratings:Not Yet Rated (Log in to rate it)


Tracker:
http://tracker.nyap2p.com:8080/announce

This Torrent also has backup trackers
URLSeedersLeechersCompleted
http://tracker.nyap2p.com:8080/announce193154190
udp://tracker.nyaa.uk:6969/announce6928115
udp://tracker.coppersurfer.tk:6969/announce000
udp://tracker.opentrackr.org:1337/announce6831119
udp://tracker.cyberia.is:6969/announce562880
udp://tracker.leechers-paradise.org:6969/announce6727102
udp://tracker.tiny-vps.com:6969/announce6828120
udp://9.rarbg.com:2710/announce6128235
udp://p4p.arenabg.com:1337/announce622289
udp://tracker.pirateparty.gr:6969/announce000
udp://9.rarbg.me:2770/announce6128235
udp://exodus.desync.com:6969/announce602383
udp://tracker.iamhansen.xyz:2000/announce612167


File List: 





Comments
No comments still posted