Download Pattas (2020) Tamil Original 720p AMZN WEB-DL AAC DD-5 1 [1 4 GB] x264 ESub Shadow (UncutHD) torrent - GloDLS
Torrent Details For "Pattas (2020) Tamil Original 720p AMZN WEB-DL AAC DD-5 1 [1 4 GB] x264 ESub Shadow (U..."

Pattas (2020) Tamil Original 720p AMZN WEB-DL AAC DD-5 1 [1 4 GB] x264 ESub Shadow (U...

To download this torrent, you need a BitTorrent client: Vuze or BTGuard
Download this torrent
Download using Magnet Link

Health:
Seeds: 533
Leechers: 586
Completed: 613 
Last Checked: 14-02-2020 09:37:21

Uploader Reputation points : 298
External: Torrent






Write a Review for the Uploader:   0   Say Thanks with one good review:
Share on Facebook


Details
Name:Pattas (2020) Tamil Original 720p AMZN WEB-DL AAC DD-5 1 [1 4 GB] x264 ESub Shadow (U...
Description:


Movie name :

Pattas (2020) Tamil Original 720p AMZN WEB-DL AAC DD-5.1 x264 ESub Shadow (UncutHD)


Quote:

Storyline : Sakthi is a petty thief in a Chennai slum, who learns the Adimurai, the ancient and oldest form of martial arts. Meanwhile, an evil man and his son challenge Sakthi for a kickboxing tournament, and Sakthi agrees to participate in it.

Release date : 17 January 2020 (UK)

File size :

Encoded by ⭐UncutHD⭐

Source :- Shadow












General
Unique ID                                : 285058847143727964923721119145388915664 (0xD67456432F58C80B70447CD92CAFBBD0)
Complete name                            :  Pattas (2020) Tamil 720p AMZN WEB-DL AAC DD-5.1 x264 ESub.mkv
Format                                   : Matroska
Format version                           : Version 4
File size                                : 1.56 GiB
Duration                                 : 2 h 20 min
Overall bit rate                         : 1 588 kb/s
Movie name                               :
Encoded date                             : UTC 2020-02-14 03:22:56
Writing application                      : mkvmerge v31.0.0 ('Dolores In A Shoestand') 64-bit
Writing library                          : libebml v1.3.6 + libmatroska v1.4.9

Video
ID                                       : 1
Format                                   : AVC
Format/Info                              : Advanced Video Codec
Format profile                           : [email protected]
Format settings                          : CABAC / 4 Ref Frames
Format settings, CABAC                   : Yes
Format settings, Reference frames        : 4 frames
Codec ID                                 : V_MPEG4/ISO/AVC
Duration                                 : 2 h 20 min
Bit rate                                 : 1 458 kb/s
Width                                    : 1 280 pixels
Height                                   : 544 pixels
Display aspect ratio                     : 2.35:1
Frame rate mode                          : Constant
Frame rate                               : 24.000 FPS
Color space                              : YUV
Chroma subsampling                       : 4:2:0
Bit depth                                : 8 bits
Scan type                                : Progressive
Bits/(Pixel*Frame)                       : 0.087
Stream size                              : 1.43 GiB (92%)
Title                                    :
Writing library                          : x264 core 157 r2969 d4099dd
Encoding settings                        : cabac=1 / ref=3 / deblock=1:0:0 / analyse=0x3:0x113 / me=hex / subme=7 / psy=1 / psy_rd=1.00:0.00 / mixed_ref=1 / me_range=16 / chroma_me=1 / trellis=1 / 8x8dct=1 / cqm=0 / deadzone=21,11 / fast_pskip=1 / chroma_qp_offset=-2 / threads=6 / lookahead_threads=1 / sliced_threads=0 / nr=0 / decimate=1 / interlaced=0 / bluray_compat=0 / constrained_intra=0 / bframes=3 / b_pyramid=2 / b_adapt=1 / b_bias=0 / direct=1 / weightb=1 / open_gop=0 / weightp=2 / keyint=240 / keyint_min=24 / scenecut=40 / intra_refresh=0 / rc_lookahead=40 / rc=crf / mbtree=1 / crf=23.0 / qcomp=0.60 / qpmin=0 / qpmax=69 / qpstep=4 / ip_ratio=1.40 / aq=1:1.00
Default                                  : Yes
Forced                                   : No

Audio
ID                                       : 2
Format                                   : AAC Main
Format/Info                              : Advanced Audio Codec
Codec ID                                 : A_AAC-1
Duration                                 : 2 h 20 min
Bit rate                                 : 128 kb/s
Channel(s)                               : 6 channels
Channel layout                           : C L R Ls Rs LFE
Sampling rate                            : 48.0 kHz
Frame rate                               : 46.875 FPS (1024 SPF)
Compression mode                         : Lossy
Stream size                              : 128 MiB (8%)
Title                                    :
Language                                 : Tamil
Default                                  : Yes
Forced                                   : No

Text
ID                                       : 3
Format                                   : UTF-8
Codec ID                                 : S_TEXT/UTF8
Codec ID/Info                            : UTF-8 Plain Text
Duration                                 : 2 h 17 min
Bit rate                                 : 63 b/s
Count of elements                        : 1962
Stream size                              : 63.9 KiB (0%)
Title                                    :
Language                                 : English
Default                                  : No
Forced                                   : No


YouTube Video:
Category:Movies
Language:Tamil
Total Size:1.56 GB
Info Hash:39A479D1D3071138274531C1C1218C066BC301DD
Added By:trueHD
Date Added:2020-02-14 11:51:49
Torrent Status:Torrent Verified by Prom3th3uS Super Administrator on 14th February, 2020


Ratings:Not Yet Rated (Log in to rate it)


Tracker:
udp://tracker.coppersurfer.tk:6969/announce

This Torrent also has backup trackers
URLSeedersLeechersCompleted
udp://tracker.coppersurfer.tk:6969/announce639493
udp://tracker.opentrackr.org:1337/announce596544
udp://tracker.cyberia.is:6969/announce516028
udp://tracker.leechers-paradise.org:6969/announce606170
udp://tracker.tiny-vps.com:6969/announce676048
udp://9.rarbg.com:2710/announce6049101
udp://p4p.arenabg.com:1337/announce495534
udp://tracker.pirateparty.gr:6969/announce649394
udp://9.rarbg.me:2770/announce6049101
udp://zer0day.ch:1337/announce000
udp://zer0day.to:1337/announce000
udp://tracker.flashtorrents.org:6969/announce000


File List: 





Comments
No comments still posted