Download Perception 2019 1080p WEB-DL x264 [MW] torrent - GloDLS
Torrent Details For "Perception 2019 1080p WEB-DL x264 [MW]"

Perception 2019 1080p WEB-DL x264 [MW]

To download this torrent, you need a BitTorrent client: Vuze or BTGuard
Download this torrent
Download using Magnet Link

Health:
Seeds: 0
Leechers: 0
Completed:
Last Checked: 22-10-2019 02:20:15

Uploader Reputation points : 6126
External: Torrent






Write a Review for the Uploader:   20   Say Thanks with one good review:
Share on Facebook


Details
Name:Perception 2019 1080p WEB-DL x264 [MW]
Description:




General
Format                                   : Matroska
Format version                           : Version 4
File size                                : 1.67 GiB
Duration                                 : 1 h 42 min
Overall bit rate                         : 2 329 kb/s

Video
ID                                       : 1
Format                                   : AVC
Format/Info                              : Advanced Video Codec
Format profile                           : [email protected]
Format settings                          : CABAC / 4 Ref Frames
Format settings, CABAC                   : Yes
Format settings, Reference frames        : 4 frames
Codec ID                                 : V_MPEG4/ISO/AVC
Duration                                 : 1 h 42 min
Bit rate                                 : 2 200 kb/s
Width                                    : 1 920 pixels
Height                                   : 800 pixels
Display aspect ratio                     : 2.40:1
Frame rate mode                          : Constant
Frame rate                               : 24.000 FPS
Color space                              : YUV
Chroma subsampling                       : 4:2:0
Bit depth                                : 8 bits
Scan type                                : Progressive
Bits/(Pixel*Frame)                       : 0.060
Stream size                              : 1.54 GiB (92%)
Writing library                          : x264 core 157 r2935 545de2f

Audio
ID                                       : 2
Format                                   : AAC LC
Codec ID                                 : A_AAC-2
Duration                                 : 1 h 42 min
Bit rate                                 : 180 kb/s
Channel(s)                               : 2 channels
Channel layout                           : L R
Sampling rate                            : 48.0 kHz
Frame rate                               : 46.875 FPS (1024 SPF)
Compression mode                         : Lossy
Stream size                              : 133 MiB (8%)
Language                                 : English
Default                                  : Yes
Forced                                   : No

Text
ID                                       : 3
Format                                   : UTF-8
Codec ID                                 : S_TEXT/UTF8
Codec ID/Info                            : UTF-8 Plain Text
Duration                                 : 1 h 35 min
Bit rate                                 : 66 b/s
Count of elements                        : 1108
Stream size                              : 46.7 KiB (0%)
Language                                 : English
Default                                  : Yes
Forced                                   : No


Click To View Image

https://pichub.site/image/hJ09k
https://pichub.site/image/hJrRQ
https://pichub.site/image/hJoKv
https://pichub.site/image/hJpXd
https://pichub.site/image/hJ5J9
https://pichub.site/image/hJliu

YouTube Video:
Category:Movies
Language:English  English
Total Size:1.67 GB
Info Hash:F719C82C972FC451F4C71927DD13082013F2FAE3
Added By:MovieFreak Verified UploaderMovie Pirate
Date Added:2019-08-13 19:40:47
Torrent Status:Torrent Verified


Ratings:Not Yet Rated (Log in to rate it)


Tracker:
udp://tracker.openbittorrent.com:80/announce

This Torrent also has backup trackers
URLSeedersLeechersCompleted
udp://tracker.openbittorrent.com:80/announce000
udp://tracker.opentrackr.org:1337/announce000
udp://tracker.coppersurfer.tk:6969/announce000
udp://tracker.leechers-paradise.org:6969/announce000
udp://tracker.internetwarriors.net:1337/announce000
udp://tracker.opentrackr.org:1337/announce000
udp://9.rarbg.to:2750/announce000
udp://exodus.desync.com:6969/announce000
udp://tracker1.itzmx.com:8080/announce000
udp://explodie.org:6969/announce000
http://tracker3.itzmx.com:6961/announce000
udp://tracker.port443.xyz:6969/announce000
udp://tracker.torrent.eu.org:451/announce000


File List: 





Comments
No comments still posted