Download Playing With Fire (2019) 720p Original Bluray Multi Audios [Hindi +English+Tamil+Telegu] DD-5 1 ESub x264 - Shadow torrent - GloDLS
Torrent Details For "Playing With Fire (2019) 720p Original Bluray Multi Audios [Hindi +English+Tamil+Tele..."

Playing With Fire (2019) 720p Original Bluray Multi Audios [Hindi +English+Tamil+Tele...

To download this torrent, you need a BitTorrent client: Vuze or BTGuard
Download this torrent
Download using Magnet Link

Health:
Seeds: 24
Leechers: 14
Completed: 5,743 
Last Checked: 16-06-2020 11:11:04

Uploader Reputation points : 728
External: Torrent






Write a Review for the Uploader:   5   Say Thanks with one good review:
Share on Facebook


Details
Name:Playing With Fire (2019) 720p Original Bluray Multi Audios [Hindi +English+Tamil+Tele...
Description:

Movie name :

Playing With Fire (2019) 720p Original Bluray Multi Audios [Hindi + English+Tamil+Telegu] DD-5.1 ESub x264 - Shadow


Quote:

*PiRATES_NEVER_DiE!*

*We Just go ON and On and On...FOREVER!*

We Team @Shadow Requests all our lovely fans kindly be home and enjoy our releases.Be safe and enjoy


कोरोना से बचाव:
घर पर फिल्में देखें। घर में रहें, सुरक्षित रहें। सरकार द्वारा दिए गए सभी दिशानिर्देशों और सावधानियों का जरूर पालन करें।


Fight Corona:
Watch movies at home. Stay Home, Stay Safe. Must Follow All the guidelines and precautions advised by the Government.

Thank you


Quote:

Storyline : A crew of rugged firefighters meet their match when attempting to rescue three rambunctious kids.

Release date : 26 December 2019 (UK)

File size :1.1  GB

Encoded by ⭐Shadow⭐

Source :- Shadow











General
Unique ID                                : 158558874596355843866938678942540477420 (0x7749541584BC535DA8D5BA939C6BB3EC)
Complete name                            : Playing With Fire (2019) 720p Original Bluray Multi Audios [Hindi +English+Tamil+Telegu] DD-5.1 ESub x264 - Shadow.mkv
Format                                   : Matroska
Format version                           : Version 4
File size                                : 1.10 GiB
Duration                                 : 1 h 35 min
Overall bit rate mode                    : Variable
Overall bit rate                         : 1 638 kb/s
Movie name                               : @Shadow
Encoded date                             : UTC 2020-03-26 06:02:33
Writing application                      : mkvmerge v31.0.0 ('Dolores In A Shoestand') 64-bit
Writing library                          : libebml v1.3.6 + libmatroska v1.4.9

Video
ID                                       : 1
Format                                   : AVC
Format/Info                              : Advanced Video Codec
Format profile                           : [email protected]
Format settings                          : CABAC / 4 Ref Frames
Format settings, CABAC                   : Yes
Format settings, Reference frames        : 4 frames
Codec ID                                 : V_MPEG4/ISO/AVC
Duration                                 : 1 h 35 min
Bit rate                                 : 1 150 kb/s
Width                                    : 1 280 pixels
Height                                   : 714 pixels
Display aspect ratio                     : 16:9
Original display aspect ratio            : 16:9
Frame rate mode                          : Constant
Frame rate                               : 23.976 (24000/1001) FPS
Color space                              : YUV
Chroma subsampling                       : 4:2:0
Bit depth                                : 8 bits
Scan type                                : Progressive
Bits/(Pixel*Frame)                       : 0.052
Stream size                              : 789 MiB (70%)
Title                                    : @Shadow
Writing library                          : x264 core 158
Encoding settings                        : cabac=1 / ref=4 / deblock=1:-1:-1 / analyse=0x3:0x133 / me=umh / subme=9 / psy=1 / psy_rd=1.00:0.15 / mixed_ref=1 / me_range=24 / chroma_me=1 / trellis=2 / 8x8dct=1 / cqm=0 / deadzone=21,11 / fast_pskip=0 / chroma_qp_offset=-3 / threads=12 / lookahead_threads=1 / sliced_threads=0 / nr=0 / decimate=1 / interlaced=0 / bluray_compat=0 / constrained_intra=0 / bframes=3 / b_pyramid=2 / b_adapt=2 / b_bias=0 / direct=3 / weightb=1 / open_gop=0 / weightp=2 / keyint=250 / keyint_min=23 / scenecut=40 / intra_refresh=0 / rc_lookahead=60 / rc=2pass / mbtree=1 / bitrate=1150 / ratetol=1.0 / qcomp=0.60 / qpmin=0 / qpmax=69 / qpstep=4 / cplxblur=20.0 / qblur=0.5 / vbv_maxrate=31250 / vbv_bufsize=31250 / nal_hrd=none / filler=0 / ip_ratio=1.40 / aq=1:1.00
Language                                 : English
Default                                  : Yes
Forced                                   : No

Audio #1
ID                                       : 2
Format                                   : AC-3
Format/Info                              : Audio Coding 3
Commercial name                          : Dolby Digital
Codec ID                                 : A_AC3
Duration                                 : 1 h 35 min
Bit rate mode                            : Constant
Bit rate                                 : 160 kb/s
Channel(s)                               : 6 channels
Channel layout                           : L R C LFE Ls Rs
Sampling rate                            : 44.1 kHz
Frame rate                               : 28.711 FPS (1536 SPF)
Compression mode                         : Lossy
Delay relative to video                  : -21 ms
Stream size                              : 110 MiB (10%)
Title                                    : @Shadow
Language                                 : Hindi
Service kind                             : Complete Main
Default                                  : Yes
Forced                                   : Yes

Audio #2
ID                                       : 3
Format                                   : AAC LC
Format/Info                              : Advanced Audio Codec Low Complexity
Codec ID                                 : A_AAC-2
Duration                                 : 1 h 35 min
Bit rate                                 : 128 kb/s
Channel(s)                               : 2 channels
Channel layout                           : L R
Sampling rate                            : 48.0 kHz
Frame rate                               : 46.875 FPS (1024 SPF)
Compression mode                         : Lossy
Delay relative to video                  : -21 ms
Stream size                              : 88.1 MiB (8%)
Title                                    : @Shadow
Language                                 : English
Default                                  : No
Forced                                   : No

Audio #3
ID                                       : 4
Format                                   : MPEG Audio
Format version                           : Version 1
Format profile                           : Layer 3
Format settings                          : Joint stereo / MS Stereo
Codec ID                                 : A_MPEG/L3
Codec ID/Hint                            : MP3
Duration                                 : 1 h 35 min
Bit rate mode                            : Variable
Bit rate                                 : 96.0 kb/s
Channel(s)                               : 2 channels
Sampling rate                            : 48.0 kHz
Frame rate                               : 41.667 FPS (1152 SPF)
Compression mode                         : Lossy
Delay relative to video                  : -21 ms
Stream size                              : 66.9 MiB (6%)
Title                                    : @Shadow
Writing library                          : LAME3.99r
Encoding settings                        : -m j -V 4 -q 3 -lowpass 15.1 --abr 96
Language                                 : Tamil
Default                                  : No
Forced                                   : No

Audio #4
ID                                       : 5
Format                                   : MPEG Audio
Format version                           : Version 1
Format profile                           : Layer 3
Format settings                          : Joint stereo / MS Stereo
Codec ID                                 : A_MPEG/L3
Codec ID/Hint                            : MP3
Duration                                 : 1 h 35 min
Bit rate mode                            : Variable
Bit rate                                 : 96.0 kb/s
Channel(s)                               : 2 channels
Sampling rate                            : 48.0 kHz
Frame rate                               : 41.667 FPS (1152 SPF)
Compression mode                         : Lossy
Delay relative to video                  : -21 ms
Stream size                              : 67.3 MiB (6%)
Title                                    : @Shadow
Writing library                          : LAME3.99r
Encoding settings                        : -m j -V 4 -q 3 -lowpass 15.1 --abr 96
Language                                 : Telugu
Default                                  : No
Forced                                   : No

Text
ID                                       : 6
Format                                   : UTF-8
Codec ID                                 : S_TEXT/UTF8
Codec ID/Info                            : UTF-8 Plain Text
Duration                                 : 1 h 31 min
Bit rate                                 : 83 b/s
Count of elements                        : 1803
Stream size                              : 55.6 KiB (0%)
Title                                    : @Shadow
Language                                 : English
Default                                  : Yes
Forced                                   : No

YouTube Video:
Category:Movies
Language:Dubs/Dual Audio
Total Size:1.10 GB
Info Hash:CF39A13DF5ED6FA7BCD217E7EEF361D6ABF35848
Added By:trueHD Verified Uploader
Date Added:2020-03-26 14:50:46
Torrent Status:Torrent Verified


Ratings:Not Yet Rated (Log in to rate it)


Tracker:
udp://tracker.coppersurfer.tk:6969/announce

This Torrent also has backup trackers
URLSeedersLeechersCompleted
udp://tracker.coppersurfer.tk:6969/announce000
udp://tracker.opentrackr.org:1337/announce431,961
udp://tracker.torrent.eu.org:451/announce42486
udp://tracker.cyberia.is:6969/announce22558
udp://tracker.leechers-paradise.org:6969/announce521,101
udp://9.rarbg.me:2910/announce320
udp://tracker.internetwarriors.net:1337/announce000
udp://tracker.pirateparty.gr:6969/announce000
udp://tracker.tiny-vps.com:6969/announce311,637
udp://9.rarbg.me:2720/announce320


File List: 





Comments
No comments still posted