Download Raat Akeli Hai 2020 Hindi 720p NF WEB-DL AAC 5 1 x264 LLG torrent - GloDLS
Torrent Details For "Raat Akeli Hai 2020 Hindi 720p NF WEB-DL AAC 5 1 x264 LLG"

Raat Akeli Hai 2020 Hindi 720p NF WEB-DL AAC 5 1 x264 LLG

To download this torrent, you need a BitTorrent client: Vuze or BTGuard
Download this torrent
Download using Magnet Link

Health:
Seeds: 1
Leechers: 0
Completed:
Last Checked: 01-08-2020 12:16:40

Uploader Reputation points : 5774
External: Torrent






Write a Review for the Uploader:   0   Say Thanks with one good review:
Share on Facebook


Details
Name:Raat Akeli Hai 2020 Hindi 720p NF WEB-DL AAC 5 1 x264 LLG
Description:

Quote:



******************************Thumbnail:**********************



******************************Screenshots:********************

screenshot 1

screenshot 2

screenshot 3

screenshot 4

screenshot 5

screenshot 6

screenshot 7

screenshot 8

screenshot 9

screenshot 0


******************************************************

Raat.Akeli.Hai.2020.Hindi.720p.NF.WEB-DL.AAC.5.1.x264.LLG.mp4
Format                                   : MPEG-4
Format profile                           : Base Media
Codec ID                                 : isom (isom/iso2/avc1/mp41)
File size                                : 1.30 GiB
Duration                                 : 2 h 29 min
Overall bit rate mode                    : Variable
Overall bit rate                         : 1 244 kb/s
Writing application                      : Lavf57.83.100

Video
ID                                       : 1
Format                                   : AVC
Format/Info                              : Advanced Video Codec
Format profile                           : [email protected]
Format settings                          : CABAC / 1 Ref Frames
Format settings, CABAC                   : Yes
Format settings, Reference frames        : 1 frame
Codec ID                                 : avc1
Codec ID/Info                            : Advanced Video Coding
Duration                                 : 2 h 29 min
Bit rate mode                            : Variable
Bit rate                                 : 906 kb/s
Maximum bit rate                         : 2 700 kb/s
Width                                    : 1 280 pixels
Height                                   : 720 pixels
Display aspect ratio                     : 16:9
Frame rate mode                          : Constant
Frame rate                               : 24.000 FPS
Color space                              : YUV
Chroma subsampling                       : 4:2:0
Bit depth                                : 8 bits
Scan type                                : Progressive
Bits/(Pixel*Frame)                       : 0.041
Stream size                              : 970 MiB (73%)
Codec configuration box                  : avcC

Audio
ID                                       : 2
Format                                   : AAC LC
Format/Info                              : Advanced Audio Codec Low Complexity
Codec ID                                 : mp4a-40-2
Duration                                 : 2 h 29 min
Bit rate mode                            : Variable
Bit rate                                 : 333 kb/s
Maximum bit rate                         : 341 kb/s
Channel(s)                               : 6 channels
Channel layout                           : C L R Ls Rs LFE
Sampling rate                            : 48.0 kHz
Frame rate                               : 46.875 FPS (1024 SPF)
Compression mode                         : Lossy
Stream size                              : 357 MiB (27%)
Language                                 : Hindi
Default                                  : Yes
Alternate group                          : 1




********************************************************


[quote]
YouTube Video:
Category:Movies
Language:Hindi  Hindi
Total Size:1.31 GB
Info Hash:2C65E06720B98B59C819166592B38C9E2D3DA0BA
Added By:LifeLongg Verified Uploader
Date Added:2020-08-01 19:16:39
Torrent Status:Torrent Verified


Ratings:Not Yet Rated (Log in to rate it)


Tracker:
udp://tracker.openbittorrent.com:80/announce

This Torrent also has backup trackers
URLSeedersLeechersCompleted
udp://tracker.openbittorrent.com:80/announce000
udp://tracker.opentrackr.org:1337/announce000
UDP://TRACKER.LEECHERS-PARADISE.ORG:6969/ANNOUNCE000
UDP://TRACKER.COPPERSURFER.TK:6969/ANNOUNCE000
UDP://TRACKER.OPENTRACKR.ORG:1337/ANNOUNCE000
UDP://TRACKER.ZER0DAY.TO:1337/ANNOUNCE000
UDP://EDDIE4.NL:6969/ANNOUNCE000


File List: 





Comments
No comments still posted