Download Ride - This Is Not A Safe Place (2019) [24bit Hi-Res]-was95 torrent - GloDLS
Torrent Details For "Ride - This Is Not A Safe Place (2019) [24bit Hi-Res]-was95"

Ride - This Is Not A Safe Place (2019) [24bit Hi-Res]-was95

To download this torrent, you need a BitTorrent client: Vuze or BTGuard
Download this torrent
Download using Magnet Link

Health:
Seeds: 0
Leechers: 0
Completed:
Last Checked: 22-08-2019 16:36:27

Uploader Reputation points : 618
External: Torrent






Write a Review for the Uploader:   5   Say Thanks with one good review:
Share on Facebook


Details
Name:Ride - This Is Not A Safe Place (2019) [24bit Hi-Res]-was95
Description:


Quality-Lossless
Release-2019
Duration-00:50:35
File Size-630 MB
Genre-Alternative
Cover Size-1400px

?----------------------------------------------------------------------------------------------
Analyzed: This Is Not A Safe Place /  Artist: Ride
----------------------------------------------------------------------------------------------
DR Peak RMS Duration Title [codec]
----------------------------------------------------------------------------------------------
DR6 -0.12 dB -8.39 dB 2:58 01 - R.I.D.E. [flac]
DR6 -0.12 dB -7.21 dB 3:37 02 - Future Love [flac]
DR6 -0.01 dB -7.57 dB 3:16 03 - Repetition [flac]
DR7 -0.01 dB -8.83 dB 2:45 04 - Kill Switch [flac]
DR6 -0.12 dB -8.69 dB 3:53 05 - Clouds of Saint Marie [flac]
DR6 -0.01 dB -8.76 dB 5:48 06 - Eternal Recurrence [flac]
DR6 -0.12 dB -8.22 dB 3:12 07 - Fifteen Minutes [flac]
DR6 -0.12 dB -8.93 dB 5:08 08 - Jump Jet [flac]
DR7 -0.12 dB -13.76 dB 3:37 09 - Dial Up [flac]
DR5 -0.12 dB -9.30 dB 3:37 10 - End Game [flac]
DR7 -0.12 dB -10.27 dB 4:00 11 - Shadows Behind the Sun [flac]
DR7 -0.12 dB -10.43 dB 8:40 12 - In This Room [flac]
----------------------------------------------------------------------------------------------
Number of files:    12
Official DR value:  DR6

Sampling rate: 44100 Hz
Average bitrate: 1669kbs
Bits per sample: 24 bit
YouTube Video:
Category:FLAC
Language:Aucune/N/D
Total Size:601.01 MB
Info Hash:10CD8EDC2E3CB782104CC8E3102F24F3474E3B0A
Added By:was95was Verified UploaderMusic Lover
Date Added:2019-08-22 23:36:24
Torrent Status:Torrent Verified


Ratings:Not Yet Rated (Log in to rate it)


Tracker:
udp://tracker.piratepublic.com:1337/announce

This Torrent also has backup trackers
URLSeedersLeechersCompleted
udp://tracker.piratepublic.com:1337/announce000
udp://tracker.pirateparty.gr:6969/announce000
udp://tracker.coppersurfer.tk:6969/announce000
udp://tracker.leechers-paradise.org:6969/announce000
udp://9.rarbg.com:2710/announce000
http://p4p.arenabg.com:1337/announce000
http://explodie.org:6969/announce000
udp://tracker.opentrackr.org:1337/announce000
udp://exodus.desync.com:6969/announce000
udp://tracker.leechers-paradise.org:6969/announce000
udp://tracker.zer0day.to:1337/announce000
udp://open.demonii.si:1337/announce000
udp://exodus.desync.com:6969/announce000
udp://tracker.iamhansen.xyz:2000/announce000


File List: 





Comments
No comments still posted