Login
Username:
Password:
Remember Me:
[Signup]
[Recover Account]
Friends
BTScene
Friendly site

Ale Torrenty Team
Friendly site

Anime RG
Friendly site

KaranPC
Friendly site

P2PDL.com
Friendly site

Free Tutorials & Courses
Friendly site
Torrent Details For "[RnC] Arjun Reddy (2017) Telugu (Uncensored) - WEB-HD - 1080p - UNTOUCHED - AVC - DD5..."

[RnC] Arjun Reddy (2017) Telugu (Uncensored) - WEB-HD - 1080p - UNTOUCHED - AVC - DD5...

To download this torrent, you need a BitTorrent client: Vuze or BTGuard
Download this torrent
Download using Magnet Link

Direct Download - no client needed

Download Faster - High Speed Download

Health:
Seeds: 3
Leechers: 0
Completed:
Last Checked: 13-10-2017 07:45:28

Uploader Reputation points : 544
External: Torrent




Write a Review for the Uploader:   0   Say Thanks with one good review:
Share on Facebook


Details
Name:[RnC] Arjun Reddy (2017) Telugu (Uncensored) - WEB-HD - 1080p - UNTOUCHED - AVC - DD5...
Description:
Arjun Reddy (2017) Telugu (Uncensored) - WEB-HD - 1080p - UNTOUCHED - AVC - DD5.1 - 7GB - ESub

English Subtitles included

Credits to TamilMV

-RnC

General
Complete name               : Arjun Reddy (2017) Telugu (Uncensored) - WEB-HD - 1080p - UNTOUCHED - AVC - DD5.1 - 7GB - ESub.mkv
Format                      : Matroska
Format version              : Version 4 / Version 2
File size                   : 7.10 GiB
Duration                    : 3 h 2 min
Overall bit rate            : 5 582 kb/s
Encoded date                : UTC 2017-10-12 23:17:44
Writing application         : mkvmerge v8.2.0 ('World of Adventure') 64bit
Writing library             : libebml v1.3.1 + libmatroska v1.4.2

Video
ID                          : 1
Format                      : AVC
Format/Info                 : Advanced Video Codec
Format profile              : [email protected]
Format settings, CABAC      : Yes
Format settings, RefFrames  : 4 frames
Codec ID                    : V_MPEG4/ISO/AVC
Duration                    : 3 h 2 min
Bit rate                    : 5 153 kb/s
Width                       : 1 920 pixels
Height                      : 816 pixels
Display aspect ratio        : 2.35:1
Frame rate mode             : Variable
Frame rate                  : 23.926 FPS
Color space                 : YUV
Chroma subsampling          : 4:2:0
Bit depth                   : 8 bits
Scan type                   : Progressive
Bits/(Pixel*Frame)          : 0.137
Stream size                 : 6.55 GiB (92%)
Language                    : Telugu
Default                     : Yes
Forced                      : No
Color range                 : Limited
Color primaries             : BT.709
Transfer characteristics    : BT.709
Matrix coefficients         : BT.709

Audio
ID                          : 2
Format                      : AAC
Format/Info                 : Advanced Audio Codec
Format profile              : LC
Codec ID                    : A_AAC
Duration                    : 3 h 2 min
Bit rate                    : 427 kb/s
Channel(s)                  : 2 channels
Channel positions           : Front: L R
Sampling rate               : 44.1 kHz
Frame rate                  : 43.066 FPS (1024 SPF)
Compression mode            : Lossy
Delay relative to video     : -156 ms
Stream size                 : 556 MiB (8%)
Language                    : Telugu
Default                     : Yes
Forced                      : No
YouTube Video:   
Category:Movies
Language:Aucune/N/D
Total Size:7.10 GB
Info Hash:3D3396173C1E93B36D87CF6BE31AE10E855F36D3
Added By:Anonup Verified Uploader
Date Added:13-10-2017 07:43:02
Torrent Status:Torrent Verified


Ratings:Not Yet Rated (Log in to rate it)


Tracker:
udp://tracker.internetwarriors.net:1337/announce

This Torrent also has backup trackers
URLSeedersLeechersCompleted
udp://tracker.internetwarriors.net:1337/announce000
udp://tracker.coppersurfer.tk:6969/announce100
udp://tracker.leechers-paradise.org:6969/announce100
udp://tracker.opentrackr.org:1337/announce100


File List: 





Comments
No comments still posted