Login
Username:
Password:
Remember Me:
[Signup]
[Recover Account]
Friends
BTScene
Friendly site

Ale Torrenty Team
Friendly site

Anime RG
Friendly site

KaranPC
Friendly site

P2PDL.com
Friendly site

Free Tutorials & Courses
Friendly site
Torrent Details For "Ryde 2016 10bit hevc-d3g r.Ryde 2016 10bit hevc-d3g (r)"

Ryde 2016 10bit hevc-d3g r.Ryde 2016 10bit hevc-d3g (r)

To download this torrent, you need a BitTorrent client: Vuze or BTGuard
Download this torrent
Download using Magnet Link

Direct Download - no client needed

Download Faster - High Speed Download

Health:
Seeds: 10
Leechers: 0
Completed:
Last Checked: 14-11-2017 22:45:18

Uploader Reputation points : 123802
External: Torrent




Write a Review for the Uploader:   60   Say Thanks with one good review:
Share on Facebook


Details
Name:Ryde 2016 10bit hevc-d3g r.Ryde 2016 10bit hevc-d3g (r)
Description:
Ryde 2016 10bit hevc-d3g r.Ryde 2016 10bit hevc-d3g (r)

ImDb: http://www.imdb.com/title/tt5339418



Complete name                            : Ryde 2016 BluRay 10Bit 1080p DD5.1 H265-d3g.mkv
Format                                   : Matroska
Format version                           : Version 2
File size                                : 1.97 GiB
Duration                                 : 1 h 25 min
Overall bit rate                         : 3 308 kb/s
Movie name                               : Ryde 2016 BluRay 10Bit 1080p DD5.1 H265-d3g
Encoded date                             : UTC 2017-11-14 01:37:01
Writing application                      : DVDFab 10.0.6.6
Writing library                          : libebml v1.3.4 + libmatroska v1.4.5

Video
ID                                       : 1
Format                                   : HEVC
Format/Info                              : High Efficiency Video Coding
Format profile                           : Main [email protected]@High
Codec ID                                 : V_MPEGH/ISO/HEVC
Duration                                 : 1 h 25 min
Bit rate                                 : 2 854 kb/s
Width                                    : 1 920 pixels
Height                                   : 800 pixels
Display aspect ratio                     : 2.40:1
Frame rate mode                          : Constant
Frame rate                               : 23.976 (24000/1001) FPS
Color space                              : YUV
Chroma subsampling                       : 4:2:0
Bit depth                                : 10 bits
Bits/(Pixel*Frame)                       : 0.077
Stream size                              : 1.70 GiB (86%)
Default                                  : Yes
Forced                                   : No
Color range                              : Limited
Color primaries                          : BT.709
Transfer characteristics                 : BT.709
Matrix coefficients                      : BT.709

Audio
ID                                       : 2
Format                                   : AC-3
Format/Info                              : Audio Coding 3
Format settings, Endianness              : Big
Codec ID                                 : A_AC3
Duration                                 : 1 h 25 min
Bit rate mode                            : Constant
Bit rate                                 : 448 kb/s
Channel(s)                               : 6 channels
Channel positions                        : Front: L C R, Side: L R, LFE
Sampling rate                            : 48.0 kHz
Frame rate                               : 31.250 FPS (1536 spf)
Bit depth                                : 16 bits
Compression mode                         : Lossy
Stream size                              : 273 MiB (14%)
Language                                 : English
Service kind                             : Complete Main
Default                                  : Yes
Forced                                   : No

Text
ID                                       : 3
Format                                   : VobSub
Codec ID                                 : S_VOBSUB
Codec ID/Info                            : Picture based subtitle format used on DVDs
Duration                                 : 1 h 24 min
Bit rate                                 : 5 411 b/s
Count of elements                        : 934
Stream size                              : 3.28 MiB (0%)
Language                                 : English
Default                                  : Yes
Forced                                   : No

Menu
00:00:00.000                             : en:Chapter 01
00:13:06.452                             : en:Chapter 02
00:22:56.166                             : en:Chapter 03
00:32:45.171                             : en:Chapter 04
00:42:04.688                             : en:Chapter 05
00:51:49.940                             : en:Chapter 06
01:04:29.073                             : en:Chapter 07
01:13:04.922                             : en:Chapter 08
01:25:15.693                             : en:Chapter 09






Click To View Screenshot

Click To View Screenshot

Click To View Screenshot
YouTube Video:
Category:Movies
Language:English  English
Total Size:1.97 GB
Info Hash:AFFF2DFE8D09EB8EF82B76827170C2A6E7D0E5B3
Added By:Simmoncelli VIPMovie Pirate
Date Added:14-11-2017 22:34:01
Torrent Status:Torrent Verified


Ratings:Not Yet Rated (Log in to rate it)


Tracker:
udp://tracker.coppersurfer.tk:6969/announce

This Torrent also has backup trackers
URLSeedersLeechersCompleted
udp://tracker.coppersurfer.tk:6969/announce100
udp://tracker.pirateparty.gr:6969/announce100
udp://shadowshq.yi.org:6969/announce000
udp://eddie4.nl:6969/announce100
udp://tracker.leechers-paradise.org:6969/announce000
udp://tracker.opentrackr.org:1337/announce100
udp://p4p.arenabg.ch:1337/announce100
udp://p4p.arenabg.com:1337/announce100
udp://9.rarbg.me:2710/announce000
udp://9.rarbg.to:2710/announce000
udp://ipv4.tracker.harry.lu:80/announce100
udp://tracker.grepler.com:6969/announce000
udp://public.popcorn-tracker.org:6969/announce100
udp://tracker.opentrackr.org:1337/announce100
udp://tracker.zer0day.to:1337/announce100


File List: 





Comments
No comments still posted