Login
Username:
Password:
Remember Me:
[Signup]
[Recover Account]
Friends
BTScene
Friendly site

Free Courses Online
Friendly site

Anime RG
Friendly site

KaranPC
Friendly site

P2PDL.com
Friendly site

Free Tutorials & Courses
Friendly site
Torrent Details For "Sanju (2018) Hindi New Pre-HDRip x264 AAC ESub by Full4movies"

Sanju (2018) Hindi New Pre-HDRip x264 AAC ESub by Full4movies

To download this torrent, you need a BitTorrent client: Vuze or BTGuard
Download this torrent
Download using Magnet Link

Direct Download - no client needed

Download Faster - High Speed Download

Health:
Seeds: 417
Leechers: 266
Completed: 580 
Last Checked: 12-07-2018 17:00:17

Uploader Reputation points : 1694
External: Torrent



BTGuard - BitTorrent Anonymously


Write a Review for the Uploader:   0   Say Thanks with one good review:
Share on Facebook


Details
Name:Sanju (2018) Hindi New Pre-HDRip x264 AAC ESub by Full4movies
Description:


General
Complete name                  : Sanju (2018) Hindi New Pre-HDRip x264 AAC ESub by Full4movies.mkv
Format                         : Matroska
Format version                 : Version 4 / Version 2
File size                      : 665 MiB
Duration                       : 2 h 28 min
Overall bit rate               : 625 kb/s
Movie name                     : www.Full4movies.co
Encoded date                   : UTC 2018-07-11 10:16:34
Writing application            : mkvmerge v8.1.0 ('Psychedelic Postcard') 32bit
Writing library                : libebml v1.3.1 + libmatroska v1.4.2

Video
ID                             : 1
Format                         : AVC
Format/Info                    : Advanced Video Codec
Format profile                 : [email protected]
Format settings, CABAC         : Yes
Format settings, RefFrames     : 4 frames
Codec ID                       : V_MPEG4/ISO/AVC
Duration                       : 2 h 28 min
Bit rate                       : 560 kb/s
Width                          : 720 pixels
Height                         : 272 pixels
Display aspect ratio           : 2.647
Frame rate mode                : Constant
Frame rate                     : 25.000 FPS
Color space                    : YUV
Chroma subsampling             : 4:2:0
Bit depth                      : 8 bits
Scan type                      : Progressive
Bits/(Pixel*Frame)             : 0.114
Stream size                    : 596 MiB (90%)
Writing library                : x264 core 155 r2901 7d0ff22
Language                       : Hindi
Default                        : Yes
Forced                         : No

Audio
ID                             : 2
Format                         : AAC
Format/Info                    : Advanced Audio Codec
Format profile                 : LC
Codec ID                       : A_AAC
Duration                       : 2 h 28 min
Bit rate                       : 62.9 kb/s
Channel(s)                     : 2 channels
Channel positions              : Front: L R
Sampling rate                  : 48.0 kHz
Frame rate                     : 46.875 FPS (1024 SPF)
Compression mode               : Lossy
Delay relative to video        : -21 ms
Stream size                    : 66.9 MiB (10%)
Language                       : Hindi
Default                        : Yes
Forced                         : No

Text
ID                             : 3
Format                         : UTF-8
Codec ID                       : S_TEXT/UTF8
Codec ID/Info                  : UTF-8 Plain Text
Duration                       : 2 h 27 min
Bit rate                       : 58 b/s
Count of elements              : 1814
Stream size                    : 63.0 KiB (0%)
Language                       : English
Default                        : Yes
Forced                         : No

Screen Shoots
YouTube Video:   
Category:Movies
Language:Hindi  Hindi
Total Size:664.98 MB
Info Hash:82243C078985CF3D4D7564A6DDD145BA3DF99154
Added By:india4movie Verified Uploader
Date Added:12-07-2018 08:23:39
Torrent Status:Torrent Verified


Ratings:Not Yet Rated (Log in to rate it)


Tracker:
udp://tracker.coppersurfer.tk:6969/announce

This Torrent also has backup trackers
URLSeedersLeechersCompleted
udp://tracker.coppersurfer.tk:6969/announce5232100
udp://tracker.opentrackr.org:1337/announce403541
udp://9.rarbg.me:2710/announce000
udp://tracker.torrent.eu.org:451/announce301820
udp://open.stealth.si:80/announce281512
udp://public.popcorn-tracker.org:6969/announce302137
udp://p4p.arenabg.ch:1337/announce000
udp://tracker.zer0day.to:1337/announce000
udp://tracker.pirateparty.gr:6969/announce5232100
udp://tracker.leechers-paradise.org:6969/announce000
udp://tracker.tiny-vps.com:6969/announce392233
udp://bt.firebit.co.uk:6969/announce382563
udp://inferno.demonoid.pw:3397/announce321845
udp://shadowshq.yi.org:6969/announce382563
udp://9.rarbg.to:2780/announce382366


File List: 





Comments
No comments still posted