Download Sarah Olivier - Pink Galina (2013) Flac-was95 torrent - GloDLS
Torrent Details For "Sarah Olivier - Pink Galina (2013) Flac-was95"

Sarah Olivier - Pink Galina (2013) Flac-was95

To download this torrent, you need a BitTorrent client: Vuze or BTGuard
Download this torrent
Download using Magnet Link

Health:
Seeds: 0
Leechers: 0
Completed:
Last Checked: 22-08-2019 16:42:46

Uploader Reputation points : 618
External: Torrent






Write a Review for the Uploader:   5   Say Thanks with one good review:
Share on Facebook


Details
Name:Sarah Olivier - Pink Galina (2013) Flac-was95
Description:


Quality-Lossless
Release-2019
Duration-00:47:41
File Size-258 MB
Genre-Pop - French
Cover Size-1400px

?----------------------------------------------------------------------------------------------
Analyzed: Pink Galina /  Artist: Sarah Olivier
----------------------------------------------------------------------------------------------
DR Peak RMS Duration Title [codec]
----------------------------------------------------------------------------------------------
DR8 -0.00 dB -9.36 dB 3:52 01 - Prières des Nuits froides [flac]
DR7 -0.04 dB -9.03 dB 3:20 02 - Pink Galina [flac]
DR8 -0.12 dB -9.32 dB 2:14 03 - Si... [flac]
DR8 -0.21 dB -9.77 dB 3:18 04 - M'as tu vue ? [flac]
DR8 -0.20 dB -10.32 dB 3:06 05 - Miss Coquette [flac]
DR10 -0.18 dB -13.60 dB 4:23 06 - Matin d'été [flac]
DR9 -0.29 dB -10.72 dB 6:08 07 - Panique [flac]
DR8 -0.51 dB -9.53 dB 2:43 08 - Blues [flac]
DR15 -2.43 dB -21.03 dB 4:08 09 - Bloody Mary [flac]
DR10 -0.43 dB -13.54 dB 3:16 10 - Voleuse [flac]
DR13 -0.47 dB -19.05 dB 11:08 11 - Ophélie [flac]
----------------------------------------------------------------------------------------------
Number of files:    11
Official DR value:  DR9

Sampling rate: 44100 Hz
Average bitrate: 756kbs
Bits per sample: 16 bit
YouTube Video:
Category:FLAC
Language:French  French
Total Size:246.50 MB
Info Hash:7295E4B990AEAAF613C0346B563D9388C1C62942
Added By:was95was Verified UploaderMusic Lover
Date Added:2019-08-22 23:42:43
Torrent Status:Torrent Verified


Ratings:Not Yet Rated (Log in to rate it)


Tracker:
udp://tracker.piratepublic.com:1337/announce

This Torrent also has backup trackers
URLSeedersLeechersCompleted
udp://tracker.piratepublic.com:1337/announce000
udp://tracker.pirateparty.gr:6969/announce000
udp://tracker.coppersurfer.tk:6969/announce000
udp://tracker.leechers-paradise.org:6969/announce000
udp://9.rarbg.com:2710/announce000
http://p4p.arenabg.com:1337/announce000
http://explodie.org:6969/announce000
udp://tracker.opentrackr.org:1337/announce000
udp://exodus.desync.com:6969/announce000
udp://tracker.leechers-paradise.org:6969/announce000
udp://tracker.zer0day.to:1337/announce000
udp://open.demonii.si:1337/announce000
udp://exodus.desync.com:6969/announce000
udp://tracker.iamhansen.xyz:2000/announce000


File List: 





Comments
No comments still posted