Download Shukranu (2020) Hindi Zee5 1080p WEB-DL x264 [1 5 GB] AAC DD-2 0 Shadow (UncutHD) torrent - GloDLS
Torrent Details For "Shukranu (2020) Hindi Zee5 1080p WEB-DL x264 [1 5 GB] AAC DD-2 0 Shadow (UncutHD)"

Shukranu (2020) Hindi Zee5 1080p WEB-DL x264 [1 5 GB] AAC DD-2 0 Shadow (UncutHD)

To download this torrent, you need a BitTorrent client: Vuze or BTGuard
Download this torrent
Download using Magnet Link

Health:
Seeds: 2,694
Leechers: 3,017
Completed: 4,150 
Last Checked: 14-02-2020 09:38:11

Uploader Reputation points : 298
External: Torrent






Write a Review for the Uploader:   0   Say Thanks with one good review:
Share on Facebook


Details
Name:Shukranu (2020) Hindi Zee5 1080p WEB-DL x264 [1 5 GB] AAC DD-2 0 Shadow (UncutHD)
Description:
[/center]

Movie name :

Shukranu (2020) Hindi Zee5 1080p WEB-DL x264 [1.5 GB] AAC DD-2.0 Shadow (UncutHD)


Quote:

Storyline : Set in Delhi/UP/Haryana, SHUKRANU is a comic take on the darkest phases of Indian democracy through the encounters of a would-be groom who is forcefully sterilized just days before his much-awaited marriage.

Release date : February 14, 2020

File size :1.5 GB

Encoded by ⭐UncutHD⭐

Source :- Shadow












General
Complete name                            : _Shukranu_2020_Zee5_WEB-DL_1080p.mp4
Format                                   : MPEG-4
Format profile                           : Base Media
Codec ID                                 : isom (isom/iso2/avc1/mp41)
File size                                : 1.53 GiB
Duration                                 : 1 h 35 min
Overall bit rate                         : 2 284 kb/s
Writing application                      : Lavf56.30.100

Video
ID                                       : 1
Format                                   : AVC
Format/Info                              : Advanced Video Codec
Format profile                           : [email protected]
Format settings                          : CABAC / 4 Ref Frames
Format settings, CABAC                   : Yes
Format settings, Reference frames        : 4 frames
Format settings, GOP                     : M=4, N=48
Codec ID                                 : avc1
Codec ID/Info                            : Advanced Video Coding
Duration                                 : 1 h 35 min
Bit rate                                 : 2 200 kb/s
Width                                    : 1 920 pixels
Height                                   : 1 080 pixels
Display aspect ratio                     : 16:9
Frame rate mode                          : Constant
Frame rate                               : 24.000 FPS
Color space                              : YUV
Chroma subsampling                       : 4:2:0
Bit depth                                : 8 bits
Scan type                                : Progressive
Bits/(Pixel*Frame)                       : 0.044
Stream size                              : 1.46 GiB (95%)
Writing library                          : x264 core 152 r2854 e9a5903
Encoding settings                        : cabac=1 / ref=3 / deblock=1:0:0 / analyse=0x3:0x113 / me=hex / subme=7 / psy=1 / psy_rd=1.00:0.00 / mixed_ref=1 / me_range=16 / chroma_me=1 / trellis=1 / 8x8dct=1 / cqm=0 / deadzone=21,11 / fast_pskip=1 / chroma_qp_offset=-2 / threads=34 / lookahead_threads=5 / sliced_threads=0 / nr=0 / decimate=1 / interlaced=0 / bluray_compat=0 / constrained_intra=0 / bframes=3 / b_pyramid=2 / b_adapt=1 / b_bias=0 / direct=1 / weightb=1 / open_gop=0 / weightp=2 / keyint=48 / keyint_min=25 / scenecut=0 / intra_refresh=0 / rc_lookahead=40 / rc=abr / mbtree=1 / bitrate=2200 / ratetol=1.0 / qcomp=0.60 / qpmin=0 / qpmax=69 / qpstep=4 / vbv_maxrate=2860 / vbv_bufsize=3300 / nal_hrd=none / filler=0 / ip_ratio=1.40 / aq=1:1.00
Codec configuration box                  : avcC

Audio
ID                                       : 2
Format                                   : AAC LC
Format/Info                              : Advanced Audio Codec Low Complexity
Codec ID                                 : mp4a-40-2
Duration                                 : 1 h 35 min
Bit rate mode                            : Constant
Bit rate                                 : 96.0 kb/s
Channel(s)                               : 2 channels
Channel layout                           : L R
Sampling rate                            : 48.0 kHz
Frame rate                               : 46.875 FPS (1024 SPF)
Compression mode                         : Lossy
Stream size                              : 66.6 MiB (4%)
Default                                  : Yes
Alternate group                          : 1


YouTube Video:
Category:Movies
Language:Hindi  Hindi
Total Size:1.53 GB
Info Hash:AEA60D8102044A2032FBA32A0DEFB9417E256346
Added By:trueHD
Date Added:2020-02-14 05:48:21
Torrent Status:Torrent Verified by Prom3th3uS Super Administrator on 13th February, 2020


Ratings:Not Yet Rated (Log in to rate it)


Tracker:
udp://tracker.coppersurfer.tk:6969/announce

This Torrent also has backup trackers
URLSeedersLeechersCompleted
udp://tracker.coppersurfer.tk:6969/announce354444788
udp://tracker.opentrackr.org:1337/announce304365376
udp://tracker.cyberia.is:6969/announce265280263
udp://tracker.leechers-paradise.org:6969/announce277289476
udp://tracker.tiny-vps.com:6969/announce304318268
udp://9.rarbg.com:2710/announce285301452
udp://p4p.arenabg.com:1337/announce267274287
udp://tracker.pirateparty.gr:6969/announce353445788
udp://9.rarbg.me:2770/announce285301452
udp://zer0day.ch:1337/announce000
udp://zer0day.to:1337/announce000
udp://tracker.flashtorrents.org:6969/announce000


File List: 





Comments
No comments still posted