Download Sophie Zelmani - A Decade Of Dreams (2005) Flac-was95 torrent - GloDLS
Torrent Details For "Sophie Zelmani - A Decade Of Dreams (2005) Flac-was95"

Sophie Zelmani - A Decade Of Dreams (2005) Flac-was95

To download this torrent, you need a BitTorrent client: Vuze or BTGuard
Download this torrent
Download using Magnet Link

Health:
Seeds: 0
Leechers: 0
Completed:
Last Checked: 23-08-2019 16:42:44

Uploader Reputation points : 618
External: Torrent






Write a Review for the Uploader:   5   Say Thanks with one good review:
Share on Facebook


Details
Name:Sophie Zelmani - A Decade Of Dreams (2005) Flac-was95
Description:


Quality-Lossless
Release-2005
Duration-01:15:01
File Size-449 MB
Genre-Pop
Cover Size-1400px

?----------------------------------------------------------------------------------------------
Analyzed: A Decade Of Dreams 1995 - 2005 /  Artist: Sophie Zelmani
----------------------------------------------------------------------------------------------
DR Peak RMS Duration Title [codec]
----------------------------------------------------------------------------------------------
DR9 -0.20 dB -12.11 dB 4:29 01 - Dreamer [flac]
DR9 -0.10 dB -12.64 dB 4:11 02 - I Can´t Change [flac]
DR8 -0.10 dB -9.75 dB 4:09 03 - Going Home [flac]
DR12 -0.92 dB -15.83 dB 3:29 04 - Precious Burden [flac]
DR9 -0.10 dB -10.64 dB 3:46 05 - People [flac]
DR10 -0.10 dB -12.43 dB 3:54 06 - Bitter Kind [flac]
DR10 -0.20 dB -14.42 dB 7:08 07 - Oh Dear [flac]
DR9 -0.10 dB -11.90 dB 3:04 08 - Stand By [flac]
DR9 -0.10 dB -12.10 dB 4:25 09 - Happier Man [flac]
DR11 -0.10 dB -13.99 dB 4:33 10 - Leaving [flac]
DR9 -1.00 dB -12.44 dB 3:56 11 - Nostalgia [flac]
DR8 -0.10 dB -10.75 dB 5:09 12 - So Long [flac]
DR11 -0.20 dB -13.35 dB 2:52 13 - Gone With The Madness [flac]
DR11 -1.70 dB -16.53 dB 2:29 14 - Fade [flac]
DR8 -0.10 dB -10.97 dB 2:41 15 - To Know You [flac]
DR8 -0.10 dB -10.88 dB 2:28 16 - Always You [flac]
DR7 -0.33 dB -11.06 dB 7:08 17 - Got To Stop [flac]
DR8 -0.10 dB -16.30 dB 5:00 18 - Our Love [flac]
----------------------------------------------------------------------------------------------
Number of files:    18
Official DR value:  DR9

Sampling rate: 44100 Hz
Average bitrate: 796kbs
Bits per sample: 16 bit
YouTube Video:
Category:FLAC
Language:Aucune/N/D
Total Size:428.37 MB
Info Hash:CAFE44D9276DBD6A4E13DB91D55AC4CC17CEB090
Added By:was95was Verified UploaderMusic Lover
Date Added:2019-08-23 23:42:41
Torrent Status:Torrent Verified


Ratings:Not Yet Rated (Log in to rate it)


Tracker:
udp://tracker.piratepublic.com:1337/announce

This Torrent also has backup trackers
URLSeedersLeechersCompleted
udp://tracker.piratepublic.com:1337/announce000
udp://tracker.pirateparty.gr:6969/announce000
udp://tracker.coppersurfer.tk:6969/announce000
udp://tracker.leechers-paradise.org:6969/announce000
udp://9.rarbg.com:2710/announce000
http://p4p.arenabg.com:1337/announce000
http://explodie.org:6969/announce000
udp://tracker.opentrackr.org:1337/announce000
udp://exodus.desync.com:6969/announce000
udp://tracker.leechers-paradise.org:6969/announce000
udp://tracker.zer0day.to:1337/announce000
udp://open.demonii.si:1337/announce000
udp://exodus.desync.com:6969/announce000
udp://tracker.iamhansen.xyz:2000/announce000


File List: 





Comments
No comments still posted