Download Sophie Zelmani - Love Affair (2003) Flac-was95 torrent - GloDLS
Torrent Details For "Sophie Zelmani - Love Affair (2003) Flac-was95"

Sophie Zelmani - Love Affair (2003) Flac-was95

To download this torrent, you need a BitTorrent client: Vuze or BTGuard
Download this torrent
Download using Magnet Link

Health:
Seeds: 21
Leechers: 0
Completed: 1,127 
Last Checked: 12-09-2019 02:07:32

Uploader Reputation points : 618
External: Torrent






Write a Review for the Uploader:   5   Say Thanks with one good review:
Share on Facebook


Details
Name:Sophie Zelmani - Love Affair (2003) Flac-was95
Description:


Quality-Lossless
Release-2003
Duration-00:44:10
File Size-251.3 MB
Genre-Pop
Cover Size-1400px

?----------------------------------------------------------------------------------------------
Analyzed: Love Affair /  Artist: Sophie Zelmani
----------------------------------------------------------------------------------------------
DR Peak RMS Duration Title [codec]
----------------------------------------------------------------------------------------------
DR8 -0.10 dB -11.94 dB 2:50 01 - September Tears [flac]
DR9 -0.10 dB -13.17 dB 3:45 02 - Maja's Song [flac]
DR9 -0.10 dB -11.65 dB 2:43 03 - To Know You [flac]
DR9 -0.10 dB -13.20 dB 3:18 04 - Memories [flac]
DR8 -0.10 dB -10.08 dB 4:24 05 - Truth [flac]
DR7 -0.10 dB -9.53 dB 2:43 06 - Keep It To Yourself [flac]
DR12 -0.10 dB -15.67 dB 1:56 07 - Grand As Loving [flac]
DR8 -0.10 dB -11.51 dB 3:52 08 - Dream Gets Clear [flac]
DR11 -0.10 dB -15.11 dB 2:31 09 - Fade [flac]
DR7 -0.10 dB -9.57 dB 3:54 10 - Hard To Know [flac]
DR9 -0.10 dB -11.73 dB 5:08 11 - Your Way [flac]
DR10 -0.10 dB -15.40 dB 4:08 12 - Stay With My Heart [flac]
DR9 -0.10 dB -12.76 dB 2:53 13 - Lost In Love [flac]
----------------------------------------------------------------------------------------------
Number of files:    13
Official DR value:  DR9

Sampling rate: 44100 Hz
Average bitrate: 745kbs
Bits per sample: 16 bit
YouTube Video:
Category:FLAC
Language:Aucune/N/D
Total Size:239.66 MB
Info Hash:3D9B6B6F8B7AA44F6196152F7717A9226F6C5B59
Added By:was95was Verified UploaderMusic Lover
Date Added:2019-08-22 02:37:53
Torrent Status:Torrent Verified


Ratings:Not Yet Rated (Log in to rate it)


Tracker:
udp://tracker.piratepublic.com:1337/announce

This Torrent also has backup trackers
URLSeedersLeechersCompleted
udp://tracker.piratepublic.com:1337/announce000
udp://tracker.pirateparty.gr:6969/announce30220
udp://tracker.coppersurfer.tk:6969/announce30220
udp://tracker.leechers-paradise.org:6969/announce3092
udp://9.rarbg.com:2710/announce200
http://p4p.arenabg.com:1337/announce000
http://explodie.org:6969/announce000
udp://tracker.opentrackr.org:1337/announce10113
udp://exodus.desync.com:6969/announce20141
udp://tracker.leechers-paradise.org:6969/announce3092
udp://tracker.zer0day.to:1337/announce000
udp://open.demonii.si:1337/announce20108
udp://exodus.desync.com:6969/announce20141
udp://tracker.iamhansen.xyz:2000/announce000


File List: 





Comments
No comments still posted