Download Spider-Man Into the Spider-Verse 2018 1080p BluRay 5 1 english arabic x265 hevc frank mkv torrent - GloDLS
Login
Username:
Password:
Remember Me:
[Signup]
[Recover Account]
Friends
BTScene
Friendly site

Free Courses Online
Friendly site

ETTV Community
Friendly site

KaranPC
Friendly site

P2PDL.com
Friendly site

Free Tutorials & Courses
Friendly site

Pirateiro
Friendly site
Torrent Details For "Spider-Man Into the Spider-Verse 2018 1080p BluRay 5 1 english arabic x265 hevc frank..."

Spider-Man Into the Spider-Verse 2018 1080p BluRay 5 1 english arabic x265 hevc frank...

To download this torrent, you need a BitTorrent client: Vuze or BTGuard
Download this torrent
Download using Magnet Link

Health:
Seeds: 38
Leechers: 19
Completed: 277 
Last Checked: 15-03-2019 18:37:38

Uploader Reputation points : 264
External: Torrent






Write a Review for the Uploader:   0   Say Thanks with one good review:
Share on Facebook


Details
Name:Spider-Man Into the Spider-Verse 2018 1080p BluRay 5 1 english arabic x265 hevc frank...
Description:



General
Unique ID                                : 237324405124700466392201735588086944044 (0xB28B0490EC60A1CEE72F200E3EDA112C)
Complete name                            : /downloads/Spider-Man.Into.the.Spider-Verse.2018.1080p.BluRay.5.1.english.arabic.x265.hevc frank .mkv
Format                                   : Matroska
Format version                           : Version 4 / Version 2
File size                                : 1.21 GiB
Duration                                 : 1 h 56 min
Overall bit rate                         : 1 485 kb/s
Movie name                               : Spider-Man.Into.the.Spider-Verse.2018.1080p.BluRay.x264.DTS-HD.MA.5.1-FGT
Encoded date                             : UTC 2019-03-14 17:43:11
Writing application                      : mkvmerge v28.2.0 ('The Awakening') 64-bit
Writing library                          : libebml v1.3.6 + libmatroska v1.4.9
Cover                                    : Yes
Attachments                              : cover.jpg / small_cover.jpg / cover_land.jpg / small_cover_land.jpg
Writing frontend                         : StaxRip v2.0.0.0

Video
ID                                       : 1
Format                                   : HEVC
Format/Info                              : High Efficiency Video Coding
Format profile                           : Main [email protected]@Main
Codec ID                                 : V_MPEGH/ISO/HEVC
Duration                                 : 1 h 56 min
Bit rate                                 : 900 kb/s
Width                                    : 1 920 pixels
Height                                   : 808 pixels
Display aspect ratio                     : 2.40:1
Frame rate mode                          : Constant
Frame rate                               : 23.976 (24000/1001) FPS
Color space                              : YUV
Chroma subsampling                       : 4:2:0
Bit depth                                : 10 bits
Bits/(Pixel*Frame)                       : 0.024
Stream size                              : 752 MiB (61%)
Writing library                          : x265 2.9+2-7e978ed93d60:[Windows][GCC 8.2.0][64 bit] 10bit
Encoding settings                        : cpuid=1111039 / frame-threads=2 / numa-pools=4 / wpp / no-pmode / no-pme / no-psnr / no-ssim / log-level=2 / input-csp=1 / input-res=1920x808 / interlace=0 / total-frames=168072 / level-idc=41 / high-tier=1 / uhd-bd=0 / ref=3 / no-allow-non-conformance / no-repeat-headers / annexb / no-aud / no-hrd / info / hash=0 / no-temporal-layers / open-gop / min-keyint=23 / keyint=250 / gop-lookahead=0 / bframes=4 / b-adapt=0 / b-pyramid / bframe-bias=0 / rc-lookahead=15 / lookahead-slices=5 / scenecut=40 / radl=0 / no-intra-refresh / ctu=64 / min-cu-size=8 / no-rect / no-amp / max-tu-size=32 / tu-inter-depth=1 / tu-intra-depth=1 / limit-tu=0 / rdoq-level=0 / dynamic-rd=0.00 / no-ssim-rd / signhide / no-tskip / nr-intra=0 / nr-inter=0 / no-constrained-intra / strong-intra-smoothing / max-merge=2 / limit-refs=3 / no-limit-modes / me=1 / subme=2 / merange=57 / temporal-mvp / weightp / no-weightb / no-analyze-src-pics / deblock=0:0 / sao / no-sao-non-deblock / rd=2 / no-early-skip / rskip / fast-intra / no-tskip-fast / no-cu-lossless / no-b-intra / no-splitrd-skip / rdpenalty=0 / psy-rd=2.00 / psy-rdoq=0.00 / no-rd-refine / no-lossless / cbqpoffs=0 / crqpoffs=0 / rc=abr / bitrate=900 / qcomp=0.60 / qpstep=4 / stats-write=0 / stats-read=2 / cplxblur=20.0 / qblur=0.5 / ipratio=1.40 / pbratio=1.30 / aq-mode=1 / aq-strength=1.00 / cutree / zone-count=0 / no-strict-cbr / qg-size=32 / no-rc-grain / qpmax=69 / qpmin=0 / no-const-vbv / sar=0 / overscan=0 / videoformat=5 / range=0 / colorprim=2 / transfer=2 / colormatrix=2 / chromaloc=0 / display-window=0 / max-cll=0,0 / min-luma=0 / max-luma=1023 / log2-max-poc-lsb=8 / vui-timing-info / vui-hrd-info / slices=1 / no-opt-qp-pps / no-opt-ref-list-length-pps / no-multi-pass-opt-rps / scenecut-bias=0.05 / no-opt-cu-delta-qp / no-aq-motion / no-hdr / no-hdr-opt / no-dhdr10-opt / no-idr-recovery-sei / analysis-reuse-level=5 / scale-factor=0 / refine-intra=0 / refine-inter=0 / refine-mv=0 / no-limit-sao / ctu-info=0 / no-lowpass-dct / refine-mv-type=0 / copy-pic=1 / max-ausize-factor=1.0 / no-dynamic-refine / no-single-sei
Default                                  : Yes
Forced                                   : No

Audio #1
ID                                       : 2
Format                                   : Opus
Codec ID                                 : A_OPUS
Duration                                 : 1 h 56 min
Bit rate                                 : 276 kb/s
Channel(s)                               : 6 channels
Channel positions                        : Front: L C R, Rear: L R, LFE
Sampling rate                            : 48.0 kHz
Frame rate                               : 50.000 FPS (960 SPF)
Compression mode                         : Lossy
Stream size                              : 231 MiB (19%)
Language                                 : English
Default                                  : No
Forced                                   : No

Audio #2
ID                                       : 3
Format                                   : Opus
Codec ID                                 : A_OPUS
Duration                                 : 1 h 56 min
Bit rate                                 : 305 kb/s
Channel(s)                               : 6 channels
Channel positions                        : Front: L C R, Rear: L R, LFE
Sampling rate                            : 48.0 kHz
Frame rate                               : 50.000 FPS (960 SPF)
Compression mode                         : Lossy
Stream size                              : 255 MiB (21%)
Language                                 : Arabic
Default                                  : No
Forced                                   : No
YouTube Video:   
Category:Movies
Language:English  English
Total Size:1.21 GB
Info Hash:BDB5FE23B33276BDEFB99E3EFA12FB4D48E6D2EC
Added By:hevcfrank
Date Added:14-03-2019 22:34:34
Torrent Status:Torrent Verified by SaM Super Administrator on 15th March, 2019


Ratings:Not Yet Rated (Log in to rate it)


Tracker:
http://re-tracker.uz:80/announce

This Torrent also has backup trackers
URLSeedersLeechersCompleted
http://re-tracker.uz:80/announce9542
udp://explodie.org:6969/announce9449
udp://9.rarbg.com:2710/announce84133
udp://tracker.coppersurfer.tk:6969/announce12653


File List: 





Comments
No comments still posted