Download Stacie Orrico - Beautiful Awakening (2006) Flac torrent - GloDLS
Login
Username:
Password:
Remember Me:
[Signup]
[Recover Account]
Friends
Pirateiro
Friendly site

Free Courses Online
Friendly site

ETTV Community
Friendly site

KaranPC
Friendly site

P2PDL.com
Friendly site

Free Tutorials & Courses
Friendly site

Torrent Details For "Stacie Orrico - Beautiful Awakening (2006) Flac"

Stacie Orrico - Beautiful Awakening (2006) Flac

To download this torrent, you need a BitTorrent client: Vuze or BTGuard
Download this torrent
Download using Magnet Link

Health:
Seeds: 0
Leechers: 0
Completed:
Last Checked: 10-06-2019 17:02:55

Uploader Reputation points : 428
External: Torrent






Write a Review for the Uploader:   5   Say Thanks with one good review:
Share on Facebook


Details
Name:Stacie Orrico - Beautiful Awakening (2006) Flac
Description:
?

Quality-Lossless
Release-2006
Duration-00:48:07
File Size-350.2 MB
Genre-Pop
Cover Size-1280px

----------------------------------------------------------------------------------------------
Analyzed: Beautiful Awakening /  Artist: Stacie Orrico
----------------------------------------------------------------------------------------------
DR Peak RMS Duration Title [codec]
----------------------------------------------------------------------------------------------
DR7 -0.00 dB -8.49 dB 3:48 01 - So Simple [flac]
DR7 -0.00 dB -8.63 dB 4:12 02 - I'm Not Missing You [flac]
DR7 -0.00 dB -9.06 dB 3:27 03 - Dream You [flac]
DR7 -0.00 dB -8.91 dB 4:29 04 - Easy To Luv You [flac]
DR6 -0.00 dB -7.78 dB 4:05 05 - Save Me [flac]
DR7 -0.00 dB -9.04 dB 3:43 06 - Take Me Away [flac]
DR7 -0.00 dB -8.98 dB 3:37 07 - Babygirl [flac]
DR8 -0.00 dB -10.18 dB 3:29 08 - Wait [flac]
DR7 -0.00 dB -9.32 dB 4:00 09 - Is It Me [flac]
DR7 -0.00 dB -8.64 dB 4:16 10 - Don't Ask Me To Stay [flac]
DR7 -0.00 dB -8.58 dB 4:32 11 - I Can't Give It Up [flac]
DR7 -0.00 dB -8.19 dB 4:25 12 - Beautiful Awakening [flac]
----------------------------------------------------------------------------------------------
Number of files:    12
Official DR value:  DR7

Sampling rate: 44100 Hz
Average bitrate: 967kbs
Bits per sample: 16 bit
YouTube Video:
Category:Music
Language:English  English
Total Size:334.02 MB
Info Hash:CCC61C614ADC78D041AF9E3D12235A67E97EB4BA
Added By:was95was Verified UploaderMusic Lover
Date Added:10-06-2019 17:02:36
Torrent Status:Torrent Verified


Ratings:Not Yet Rated (Log in to rate it)


Tracker:
udp://tracker.piratepublic.com:1337/announce

This Torrent also has backup trackers
URLSeedersLeechersCompleted
udp://tracker.piratepublic.com:1337/announce000
udp://tracker.pirateparty.gr:6969/announce000
udp://tracker.coppersurfer.tk:6969/announce000
udp://tracker.leechers-paradise.org:6969/announce000
udp://9.rarbg.com:2710/announce000
http://p4p.arenabg.com:1337/announce000
http://tracker.internetwarriors.net:1337/announce000
udp://tracker.opentrackr.org:1337/announce000
udp://exodus.desync.com:6969/announce000
udp://tracker.leechers-paradise.org:6969/announce000
udp://tracker.zer0day.to:1337/announce000
udp://eddie4.nl:6969/announce000
udp://open.demonii.si:1337/announce000
udp://tracker.iamhansen.xyz:2000/announce000


File List: 





Comments
No comments still posted