Login
Username:
Password:
Remember Me:
[Signup]
[Recover Account]
Friends
BTScene
Friendly site

Free Courses Online
Friendly site

Anime RG
Friendly site

KaranPC
Friendly site

P2PDL.com
Friendly site

Free Tutorials & Courses
Friendly site
Torrent Details For "Super Rakshak (2018) 720p Hindi Dubbed HDRip x264 AAC by Full4movies"

Super Rakshak (2018) 720p Hindi Dubbed HDRip x264 AAC by Full4movies

To download this torrent, you need a BitTorrent client: Vuze or BTGuard
Download this torrent
Download using Magnet Link

Direct Download - no client needed

Download Faster - High Speed Download

Health:
Seeds: 80
Leechers: 415
Completed: 152 
Last Checked: 15-06-2018 06:18:13

Uploader Reputation points : 1694
External: Torrent



BTGuard - BitTorrent Anonymously


Write a Review for the Uploader:   0   Say Thanks with one good review:
Share on Facebook


Details
Name:Super Rakshak (2018) 720p Hindi Dubbed HDRip x264 AAC by Full4movies
Description:


General
Complete name                  : Super Rakshak (2018) 720p Hindi Dubbed HDRip x264 AAC by Full4movies.mkv
Format                         : Matroska
Format version                 : Version 4 / Version 2
File size                      : 1.12 GiB
Duration                       : 2 h 3 min
Overall bit rate               : 1 293 kb/s
Movie name                     : www.Full4moveis.co
Encoded date                   : UTC 2018-06-14 14:06:03
Writing application            : mkvmerge v8.1.0 ('Psychedelic Postcard') 32bit
Writing library                : libebml v1.3.1 + libmatroska v1.4.2

Video
ID                             : 1
Format                         : AVC
Format/Info                    : Advanced Video Codec
Format profile                 : [email protected]
Format settings, CABAC         : Yes
Format settings, RefFrames     : 5 frames
Codec ID                       : V_MPEG4/ISO/AVC
Duration                       : 2 h 3 min
Bit rate                       : 1 152 kb/s
Width                          : 1 280 pixels
Height                         : 548 pixels
Display aspect ratio           : 2.35:1
Frame rate mode                : Constant
Frame rate                     : 30.000 FPS
Color space                    : YUV
Chroma subsampling             : 4:2:0
Bit depth                      : 8 bits
Scan type                      : Progressive
Bits/(Pixel*Frame)             : 0.055
Stream size                    : 1.01 GiB (90%)
Writing library                : x264 core 148 r2643 5c65704
Language                       : Kannada
Default                        : Yes
Forced                         : No

Audio
ID                             : 2
Format                         : AAC
Format/Info                    : Advanced Audio Codec
Format profile                 : LC
Codec ID                       : A_AAC
Duration                       : 2 h 3 min
Bit rate                       : 126 kb/s
Channel(s)                     : 2 channels
Channel positions              : Front: L R
Sampling rate                  : 44.1 kHz
Frame rate                     : 43.066 FPS (1024 SPF)
Compression mode               : Lossy
Stream size                    : 111 MiB (10%)
Language                       : Hindi
Default                        : Yes
Forced                         : No

Screen Shoots
YouTube Video:
Category:Movies
Language:Hindi  Hindi
Total Size:1.12 GB
Info Hash:81D717FE7F7A0BC2BB31957A47643B186A7BA00F
Added By:india4movie Verified Uploader
Date Added:14-06-2018 17:14:18
Torrent Status:Torrent Verified


Ratings:Not Yet Rated (Log in to rate it)


Tracker:
udp://tracker.coppersurfer.tk:6969/announce

This Torrent also has backup trackers
URLSeedersLeechersCompleted
udp://tracker.coppersurfer.tk:6969/announce123819
udp://tracker.opentrackr.org:1337/announce7359
udp://9.rarbg.me:2710/announce63114
udp://tracker.torrent.eu.org:451/announce4376
udp://open.stealth.si:80/announce1140
udp://public.popcorn-tracker.org:6969/announce3324
udp://p4p.arenabg.ch:1337/announce000
udp://tracker.zer0day.to:1337/announce000
udp://tracker.pirateparty.gr:6969/announce123819
udp://tracker.leechers-paradise.org:6969/announce63316
udp://tracker.tiny-vps.com:6969/announce6307
udp://bt.firebit.co.uk:6969/announce63316
udp://inferno.demonoid.pw:3397/announce53012
udp://shadowshq.yi.org:6969/announce63316
udp://9.rarbg.to:2780/announce63114


File List: 





Comments
No comments still posted