Login
Username:
Password:
Remember Me:
[Signup]
[Recover Account]
Friends
BTScene
Friendly site

Ale Torrenty Team
Friendly site

Anime RG
Friendly site

KaranPC
Friendly site

P2PDL.com
Friendly site

Free Tutorials & Courses
Friendly site
Torrent Details For "Sweet Home Carolina 2017 720p WEB-DL X264"

Sweet Home Carolina 2017 720p WEB-DL X264

To download this torrent, you need a BitTorrent client: Vuze or BTGuard
Download this torrent
Download using Magnet Link

Direct Download - no client needed

Download Faster - High Speed Download

Health:
Seeds: 155
Leechers: 133
Completed: 182 
Last Checked: 17-11-2017 11:33:32

Uploader Reputation points : 1296
External: Torrent




Write a Review for the Uploader:   5   Say Thanks with one good review:
Share on Facebook


Details
Name:Sweet Home Carolina 2017 720p WEB-DL X264
Description:



General
Format                                   : Matroska
Format version                           : Version 4 / Version 2
File size                                : 979 MiB
Duration                                 : 1 h 24 min
Overall bit rate mode                    : Variable
Overall bit rate                         : 1 625 kb/s

Video
ID                                       : 1
Format                                   : AVC
Format/Info                              : Advanced Video Codec
Format profile                           : [email protected]
Format settings                          : 1 Ref Frames
Format settings, CABAC                   : No
Format settings, RefFrames               : 1 frame
Codec ID                                 : V_MPEG4/ISO/AVC
Duration                                 : 1 h 24 min
Bit rate mode                            : Variable
Bit rate                                 : 1 500 kb/s
Width                                    : 1 280 pixels
Height                                   : 720 pixels
Display aspect ratio                     : 16:9
Frame rate mode                          : Constant
Frame rate                               : 23.976 (24000/1001) FPS
Color space                              : YUV
Chroma subsampling                       : 4:2:0
Bit depth                                : 8 bits
Scan type                                : Progressive
Bits/(Pixel*Frame)                       : 0.068
Stream size                              : 900 MiB (92%)
Language                                 : English
Default                                  : Yes
Forced                                   : No

Audio
ID                                       : 2
Format                                   : AAC
Format/Info                              : Advanced Audio Codec
Format profile                           : LC
Codec ID                                 : A_AAC-2
Duration                                 : 1 h 24 min
Bit rate                                 : 128 kb/s
Channel(s)                               : 2 channels
Channel positions                        : Front: L R
Sampling rate                            : 44.1 kHz
Frame rate                               : 43.066 FPS (1024 SPF)
Compression mode                         : Lossy
Stream size                              : 77.1 MiB (8%)
Language                                 : English
Default                                  : Yes
Forced                                   : No

Menu
00:00:00.000                             : en:Chapter 1
00:11:10.670                             : en:Chapter 2
00:20:36.235                             : en:Chapter 3
00:31:39.898                             : en:Chapter 4
00:40:48.445                             : en:Chapter 5
00:49:32.968                             : en:Chapter 6
00:59:51.585                             : en:Chapter 7
01:10:22.215                             : en:Chapter 8
01:21:16.868                             : en:Chapter 9











YouTube Video:
Category:Mobile
Language:English  English
Total Size:978.90 MB
Info Hash:6B5DE7EB37574F08EF2FD49A0236DD509F40FDF2
Added By:MovieFreak Verified UploaderMovie Pirate
Date Added:17-11-2017 07:42:31
Torrent Status:Torrent Verified


Ratings:Not Yet Rated (Log in to rate it)


Tracker:
udp://tracker.coppersurfer.tk:6969/announce

This Torrent also has backup trackers
URLSeedersLeechersCompleted
udp://tracker.coppersurfer.tk:6969/announce161217
udp://tracker.cyberia.is:6969/announce000
udp://inferno.demonoid.pw:3391/announce13913
udp://open.stealth.si:80/announce121112
udp://tracker.pirateparty.gr:6969/announce161217
udp://peerfect.org:6969/announce599
udp://p4p.arenabg.com:1337/announce141117
udp://p4p.arenabg.ch:1337/announce141117
udp://tracker.leechers-paradise.org:6969/announce121116
udp://ipv4.tracker.harry.lu:80/announce000
udp://shadowshq.yi.org:6969/announce121116
udp://tracker.vanitycore.co:6969/announce141117
udp://tracker.opentrackr.org:1337/announce161419
udp://explodie.org:6969/announce000
udp://tracker.zer0day.to:1337/announce111112


File List: 





Comments
No comments still posted