Download Terminator Dark Fate (2019) 720p Proper HDrip Multi Audio [Hindi HQ + Eng Org + Telugu HQ + Tamil HQ] AAC x264 Esubs Bongrockers torrent - GloDLS
Torrent Details For "Terminator Dark Fate (2019) 720p Proper HDrip Multi Audio [Hindi HQ + Eng Org + Telug..."

Terminator Dark Fate (2019) 720p Proper HDrip Multi Audio [Hindi HQ + Eng Org + Telug...

To download this torrent, you need a BitTorrent client: Vuze or BTGuard
Download this torrent
Download using Magnet Link

Health:
Seeds: 1,213
Leechers: 222
Completed: 10,188 
Last Checked: 17-01-2020 07:25:55

Uploader Reputation points : 962
External: Torrent






Write a Review for the Uploader:   5   Say Thanks with one good review:
Share on Facebook


Details
Name:Terminator Dark Fate (2019) 720p Proper HDrip Multi Audio [Hindi HQ + Eng Org + Telug...
Description:


Movie name :

Terminator Dark Fate (2019) 720p Proper HDrip Multi Audio [Hindi HQ + Eng Org + Telugu HQ + Tamil HQ] AAC x264 Bongrockers

Quote:

Storyline : An augmented human and Sarah Connor must stop an advanced liquid Terminator, from hunting down a young girl, whose fate is critical to the human race.

Stars : Linda Hamilton, Arnold Schwarzenegger, Mackenzie Davis

Release date : 23 October 2019 (UK)

File size : 1.1 GB

Encoded by?Bongrockers?


SPECIAL THANKS TO:Team HDWebMovies & Team DRSD & Team SHADOW & Team Jaffa & Silver RG

SPECIAL THANKS TO:Y2K & CLouD9 & Vagabond & RedLady & Maffin & trueHD & starshade











General
Unique ID                                : 201739036718667819997912030401343600178 (0x97C58671FD2563BB609968D7ADC53632)
Complete name                            :Terminator Dark Fate (2019) Proper HDRip - 720p - HQ Line [Telugu + Tamil + Hindi + Eng].mkv
Format                                   : Matroska
Format version                           : Version 4
File size                                : 1.05 GiB
Duration                                 : 2 h 8 min
Overall bit rate mode                    : Variable
Overall bit rate                         : 1 174 kb/s
Movie name                               :
Encoded date                             : UTC 2020-01-14 10:33:47
Writing application                      : mkvmerge v31.0.0 ('Dolores In A Shoestand') 64-bit
Writing library                          : libebml v1.3.6 + libmatroska v1.4.9

Video
ID                                       : 1
Format                                   : AVC
Format/Info                              : Advanced Video Codec
Format profile                           : [email protected]
Format settings                          : CABAC / 4 Ref Frames
Format settings, CABAC                   : Yes
Format settings, Reference frames        : 4 frames
Codec ID                                 : V_MPEG4/ISO/AVC
Duration                                 : 2 h 8 min
Bit rate                                 : 826 kb/s
Width                                    : 1 280 pixels
Height                                   : 536 pixels
Display aspect ratio                     : 2.40:1
Frame rate mode                          : Constant
Frame rate                               : 23.976 (24000/1001) FPS
Color space                              : YUV
Chroma subsampling                       : 4:2:0
Bit depth                                : 8 bits
Scan type                                : Progressive
Bits/(Pixel*Frame)                       : 0.050
Stream size                              : 750 MiB (70%)
Title                                    :
Writing library                          : x264 core 157 r2935 545de2f
Encoding settings                        : cabac=1 / ref=1 / deblock=1:0:0 / analyse=0x3:0x113 / me=hex / subme=2 / psy=1 / psy_rd=1.00:0.00 / mixed_ref=0 / me_range=16 / chroma_me=1 / trellis=0 / 8x8dct=1 / cqm=0 / deadzone=21,11 / fast_pskip=1 / chroma_qp_offset=0 / threads=17 / lookahead_threads=4 / sliced_threads=0 / nr=0 / decimate=1 / interlaced=0 / bluray_compat=0 / constrained_intra=0 / bframes=3 / b_pyramid=2 / b_adapt=1 / b_bias=0 / direct=1 / weightb=1 / open_gop=0 / weightp=1 / keyint=240 / keyint_min=23 / scenecut=40 / intra_refresh=0 / rc_lookahead=10 / rc=abr / mbtree=1 / bitrate=826 / ratetol=1.0 / qcomp=0.60 / qpmin=0 / qpmax=69 / qpstep=4 / ip_ratio=1.40 / aq=1:1.00
Language                                 : English
Default                                  : Yes
Forced                                   : No

Audio #1
ID                                       : 2
Format                                   : MPEG Audio
Format version                           : Version 1
Format profile                           : Layer 3
Format settings                          : Joint stereo / MS Stereo
Codec ID                                 : A_MPEG/L3
Codec ID/Hint                            : MP3
Duration                                 : 2 h 8 min
Bit rate mode                            : Variable
Bit rate                                 : 84.4 kb/s
Nominal bit rate                         : 96.0 kb/s
Channel(s)                               : 2 channels
Sampling rate                            : 44.1 kHz
Frame rate                               : 38.281 FPS (1152 SPF)
Compression mode                         : Lossy
Stream size                              : 77.3 MiB (7%)
Title                                    :
Writing library                          : LAME3.99r
Encoding settings                        : -m j -V 4 -q 3 -lowpass 15.1 --abr 96
Language                                 : Telugu
Default                                  : Yes
Forced                                   : No

Audio #2
ID                                       : 3
Format                                   : MPEG Audio
Format version                           : Version 1
Format profile                           : Layer 3
Format settings                          : Joint stereo
Codec ID                                 : A_MPEG/L3
Codec ID/Hint                            : MP3
Duration                                 : 2 h 8 min
Bit rate mode                            : Variable
Bit rate                                 : 90.0 kb/s
Nominal bit rate                         : 96.0 kb/s
Channel(s)                               : 2 channels
Sampling rate                            : 48.0 kHz
Frame rate                               : 41.667 FPS (1152 SPF)
Compression mode                         : Lossy
Stream size                              : 82.5 MiB (8%)
Title                                    :
Writing library                          : LAME3.99r
Encoding settings                        : -m j -V 4 -q 3 -lowpass 15.1 --abr 96
Language                                 : Tamil
Default                                  : No
Forced                                   : No

Audio #3
ID                                       : 4
Format                                   : MPEG Audio
Format version                           : Version 1
Format profile                           : Layer 3
Format settings                          : Joint stereo
Codec ID                                 : A_MPEG/L3
Codec ID/Hint                            : MP3
Duration                                 : 2 h 8 min
Bit rate mode                            : Variable
Bit rate                                 : 89.5 kb/s
Nominal bit rate                         : 96.0 kb/s
Channel(s)                               : 2 channels
Sampling rate                            : 48.0 kHz
Frame rate                               : 41.667 FPS (1152 SPF)
Compression mode                         : Lossy
Stream size                              : 82.0 MiB (8%)
Title                                    :
Writing library                          : LAME3.99r
Encoding settings                        : -m j -V 4 -q 3 -lowpass 15.1 --abr 96
Language                                 : Hindi
Default                                  : No
Forced                                   : No

Audio #4
ID                                       : 5
Format                                   : MPEG Audio
Format version                           : Version 1
Format profile                           : Layer 3
Format settings                          : Joint stereo / MS Stereo
Codec ID                                 : A_MPEG/L3
Codec ID/Hint                            : MP3
Duration                                 : 2 h 8 min
Bit rate mode                            : Variable
Bit rate                                 : 87.3 kb/s
Nominal bit rate                         : 96.0 kb/s
Channel(s)                               : 2 channels
Sampling rate                            : 48.0 kHz
Frame rate                               : 41.667 FPS (1152 SPF)
Compression mode                         : Lossy
Stream size                              : 80.0 MiB (7%)
Title                                    :
Writing library                          : LAME3.99r
Encoding settings                        : -m j -V 4 -q 3 -lowpass 15.1 --abr 96
Language                                 : English
Default                                  : No
Forced                                   : No

Text #1
ID                                       : 6
Format                                   : UTF-8
Codec ID                                 : S_TEXT/UTF8
Codec ID/Info                            : UTF-8 Plain Text
Duration                                 : 1 h 57 min
Bit rate                                 : 40 b/s
Count of elements                        : 1429
Stream size                              : 34.6 KiB (0%)
Title                                    :
Language                                 : English
Default                                  : Yes
Forced                                   : No

Text #2
ID                                       : 7
Format                                   : UTF-8
Codec ID                                 : S_TEXT/UTF8
Codec ID/Info                            : UTF-8 Plain Text
Duration                                 : 1 h 57 min
Bit rate                                 : 31 b/s
Count of elements                        : 1120
Stream size                              : 27.4 KiB (0%)
Title                                    :
Language                                 : English
Default                                  : No
Forced                                   : No


YouTube Video:
Category:Movies
Language:Dubs/Dual Audio
Total Size:1.05 GB
Info Hash:B31AF7D42BFE9F5877952C0E6D5F6A9A5CD8C2CF
Added By:trueHD Verified Uploader
Date Added:2020-01-14 19:40:39
Torrent Status:Torrent Verified by Prom3th3uS Super Administrator on 14th January, 2020


Ratings:Not Yet Rated (Log in to rate it)


Tracker:
udp://tracker.coppersurfer.tk:6969/announce

This Torrent also has backup trackers
URLSeedersLeechersCompleted
udp://tracker.coppersurfer.tk:6969/announce115182,012
udp://tracker.opentrackr.org:1337/announce93221,118
http://tracker1.itzmx.com:8080/announce50991814
udp://tracker.cyberia.is:6969/announce7715464
udp://tracker.leechers-paradise.org:6969/announce7313731
udp://tracker.tiny-vps.com:6969/announce8317535
udp://9.rarbg.com:2710/announce74141,251
udp://9.rarbg.me:2730/announce74141,251
udp://tracker.pirateparty.gr:6969/announce115182,012


File List: 





Comments
No comments still posted