Login
Username:
Password:
Remember Me:
[Signup]
[Recover Account]
Friends
BTScene
Friendly site

Ale Torrenty Team
Friendly site

Anime RG
Friendly site

KaranPC
Friendly site

P2PDL.com
Friendly site

Free Tutorials & Courses
Friendly site
Torrent Details For "The Foreigner 2017 SUBBED CAM XViD 26k"

The Foreigner 2017 SUBBED CAM XViD 26k

To download this torrent, you need a BitTorrent client: Vuze or BTGuard
Download this torrent
Download using Magnet Link

Direct Download - no client needed

Download Faster - High Speed Download

Health:
Seeds: 2,116
Leechers: 929
Completed: 18,478 
Last Checked: 14-11-2017 15:44:20

Uploader Reputation points : 41280
External: Torrent




Write a Review for the Uploader:   15   Say Thanks with one good review:
Share on Facebook


Details
Name:The Foreigner 2017 SUBBED CAM XViD 26k
Description:


http://www.imdb.com/title/tt1615160


Plot:

A humble businessman with a buried past seeks justice when his daughter is killed in an act of terrorism. A cat-and-mouse conflict ensues with a government official, whose past may hold clues to the killers' identities.


Sources - VIDEO: "720p" ZIT ....Thanks :P
         AUDIO: "720p" ZIT ....Thanks :P


Notes -

Took the source which is all over the place BAD.. fixed flicker best we could, fixed colors best we could and well fixed audio best we could.. still has a major blockiness issue during high action scenes which is unfixable due to crappy source..  ENJOY ...


REASON FOR READNFO:

VID DOES HAVE WATERMARKS.. BLURRED A FEW OF THEM THAT ARE STATIONARY..


Complete name               : The.Foreigner.2017.SUBBED.CAM.READNFO.XViD-26k.avi
Format                      : AVI
Format/Info                 : Audio Video Interleave
File size                   : 1.37 GiB
Duration                    : 1h 43mn
Overall bit rate            : 1 888 Kbps
Writing library             : VirtualDub build 32839/release

Video
ID                          : 0
Format                      : MPEG-4 Visual
Format profile              : Advanced [email protected]
Format settings, BVOP       : 2
Format settings, QPel       : Yes
Format settings, GMC        : No warppoints
Format settings, Matrix     : Default (H.263)
Muxing mode                 : Packed bitstream
Codec ID                    : XVID
Codec ID/Hint               : XviD
Duration                    : 1h 43mn
Bit rate                    : 1 750 Kbps
Width                       : 720 pixels
Height                      : 320 pixels
Display aspect ratio        : 2.25:1
Frame rate                  : 23.976 fps
Color space                 : YUV
Chroma subsampling          : 4:2:0
Bit depth                   : 8 bits
Scan type                   : Progressive
Compression mode            : Lossy
Bits/(Pixel*Frame)          : 0.317
Stream size                 : 1.27 GiB (93%)
Writing library             : XviD 67

Audio
ID                          : 1
Format                      : MPEG Audio
Format version              : Version 1
Format profile              : Layer 3
Mode                        : Joint stereo
Mode extension              : MS Stereo
Codec ID                    : 55
Codec ID/Hint               : MP3
Duration                    : 1h 43mn
Bit rate mode               : Constant
Bit rate                    : 128 Kbps
Channel(s)                  : 2 channels
Sampling rate               : 48.0 KHz
Compression mode            : Lossy
Delay relative to video     : 16ms
Stream size                 : 95.2 MiB (7%)
Alignment                   : Split accross interleaves
Interleave, duration        : 42 ms (1.00 video frame)
YouTube Video:
Category:Movies
Language:English  English
Total Size:1.42 GB
Info Hash:02F5482EF690F60FF2FEEC8D857F2920E2CA2A3A
Added By:NO1CARES Verified UploaderPorn Guy
Date Added:11-11-2017 18:37:16
Torrent Status:Torrent Verified


Ratings:Not Yet Rated (Log in to rate it)


Tracker:
udp://tracker.coppersurfer.tk:6969/announce

This Torrent also has backup trackers
URLSeedersLeechersCompleted
udp://tracker.coppersurfer.tk:6969/announce212732,011
udp://tracker.pirateparty.gr:6969/announce212732,011
udp://shadowshq.yi.org:6969/announce1766771
udp://eddie4.nl:6969/announce1766771
udp://tracker.leechers-paradise.org:6969/announce1766771
udp://tracker.opentrackr.org:1337/announce133771,111
udp://p4p.arenabg.ch:1337/announce000
udp://p4p.arenabg.com:1337/announce000
udp://9.rarbg.me:2710/announce108583,283
udp://9.rarbg.to:2710/announce108583,283
udp://tracker.coppersurfer.tk:80/announce212732,011
udp://tracker.vanitycore.co:6969/announce11861852
udp://public.popcorn-tracker.org:6969/announce10762799
udp://tracker.opentrackr.org:1337/announce133771,111
udp://tracker.zer0day.to:1337/announce11955819


File List: 





Comments
No comments still posted