Download The Front Runner 2019 DVDRip XviD AC3 LLG torrent - GloDLS
Login
Username:
Password:
Remember Me:
[Signup]
[Recover Account]
Friends
BTScene
Friendly site

Free Courses Online
Friendly site

ETTV Community
Friendly site

KaranPC
Friendly site

P2PDL.com
Friendly site

Free Tutorials & Courses
Friendly site

Pirateiro
Friendly site
Torrent Details For "The Front Runner 2019 DVDRip XviD AC3 LLG"

The Front Runner 2019 DVDRip XviD AC3 LLG

To download this torrent, you need a BitTorrent client: Vuze or BTGuard
Download this torrent
Download using Magnet Link

Health:
Seeds: 0
Leechers: 1
Completed:
Last Checked: 22-04-2019 22:50:09

Uploader Reputation points : 4324
External: Torrent






Write a Review for the Uploader:   0   Say Thanks with one good review:
Share on Facebook


Details
Name:The Front Runner 2019 DVDRip XviD AC3 LLG
Description:

Quote:



******************************Thumbnail:**********************



******************************Screenshots:********************

Screenshot 1

Screenshot 2

Screenshot 3

Screenshot 4

Screenshot 5

Screenshot 6

Screenshot 7

Screenshot 8

Screenshot 9

Screenshot 0


******************************************************

The.Front.Runner.2019.DVDRip.XviD.AC3.LLG.mp4
Format                                   : MPEG-4
Format profile                           : Base Media
Codec ID                                 : isom (isom/iso2/avc1/mp41)
File size                                : 1.02 GiB
Duration                                 : 1 h 53 min
Overall bit rate mode                    : Variable
Overall bit rate                         : 1 287 kb/s
Writing application                      : Lavf57.83.100

Video
ID                                       : 1
Format                                   : AVC
Format/Info                              : Advanced Video Codec
Format profile                           : [email protected]
Format settings                          : CABAC / 1 Ref Frames
Format settings, CABAC                   : Yes
Format settings, RefFrames               : 1 frame
Codec ID                                 : avc1
Codec ID/Info                            : Advanced Video Coding
Duration                                 : 1 h 53 min
Bit rate mode                            : Variable
Bit rate                                 : 899 kb/s
Maximum bit rate                         : 2 700 kb/s
Width                                    : 720 pixels
Height                                   : 384 pixels
Display aspect ratio                     : 1.85:1
Frame rate mode                          : Constant
Frame rate                               : 23.976 (23976/1000) FPS
Color space                              : YUV
Chroma subsampling                       : 4:2:0
Bit depth                                : 8 bits
Scan type                                : Progressive
Bits/(Pixel*Frame)                       : 0.136
Stream size                              : 730 MiB (70%)
Codec configuration box                  : avcC

Audio
ID                                       : 2
Format                                   : AC-3
Format/Info                              : Audio Coding 3
Commercial name                          : Dolby Digital
Codec ID                                 : ac-3
Duration                                 : 1 h 53 min
Bit rate mode                            : Constant
Bit rate                                 : 384 kb/s
Channel(s)                               : 6 channels
Channel layout                           : L R C LFE Ls Rs
Sampling rate                            : 48.0 kHz
Frame rate                               : 31.250 FPS (1536 SPF)
Bit depth                                : 16 bits
Compression mode                         : Lossy
Stream size                              : 312 MiB (30%)
Service kind                             : Complete Main
Default                                  : Yes
Alternate group                          : 1


********************************************************


YouTube Video:
Category:Movies
Language:English  English
Total Size:1.04 GB
Info Hash:65733EB7F6C570B8E72CAF9F95CA643E57CAD8BB
Added By:LifeLongg Verified Uploader
Date Added:11-02-2019 13:12:00
Torrent Status:Torrent Verified


Ratings:Not Yet Rated (Log in to rate it)


Tracker:
udp://tracker.openbittorrent.com:80/announce

This Torrent also has backup trackers
URLSeedersLeechersCompleted
udp://tracker.openbittorrent.com:80/announce010
udp://tracker.opentrackr.org:1337/announce000
UDP://TRACKER.LEECHERS-PARADISE.ORG:6969/ANNOUNCE000
UDP://TRACKER.COPPERSURFER.TK:6969/ANNOUNCE000
UDP://TRACKER.OPENTRACKR.ORG:1337/ANNOUNCE000
UDP://TRACKER.ZER0DAY.TO:1337/ANNOUNCE000
UDP://EDDIE4.NL:6969/ANNOUNCE000


File List: 





Comments
No comments still posted