Download The Hero una vita da eroe (2017) ITA-ENG Ac3 5 1 BDRip 1080p H264 [ArMor] torrent - GloDLS
Login
Username:
Password:
Remember Me:
[Signup]
[Recover Account]
Friends
Angie Torrents
Friendly Site

Pirateiro
Friendly site

Free Courses Online
Friendly site

ETTV
Friendly site

KaranPC
Friendly site

P2PDL.com
Friendly site

OneHack
Friendly site

IGGGames
Friendly site

Torrent Details For "The Hero una vita da eroe (2017) ITA-ENG Ac3 5 1 BDRip 1080p H264 [ArMor]"

The Hero una vita da eroe (2017) ITA-ENG Ac3 5 1 BDRip 1080p H264 [ArMor]

To download this torrent, you need a BitTorrent client: Vuze or BTGuard
Download this torrent
Download using Magnet Link

Health:
Seeds: 0
Leechers: 0
Completed:
Last Checked: 16-10-2020 21:25:39

Uploader Reputation points : 952
External: Torrent






Write a Review for the Uploader:   0   Say Thanks with one good review:
Share on Facebook


Details
Name:The Hero una vita da eroe (2017) ITA-ENG Ac3 5 1 BDRip 1080p H264 [ArMor]
Description:







Regista: Brett Haley
Genere: Commedia, Drammatico
Anno: 2017
Paese: USA



Lee Hayden, è un noto interprete di western e sta per ricevere un premio alla carriera. L'ambito riconoscimento, però, non è la sua principale preoccupazione, perché l'uomo è malato e ha una figlia con cui desidera ardentemente riconciliarsi.

An ailing movie star comes to terms with his past and mortality.













General
Unique ID                                : 182602109595421484034517791717954630783 (0x895FE3178807D5EDAB41E6C2571B347F)
Complete name                            : The Hero una vita da eroe (2017) ITA-ENG Ac3 5.1 BDRip 1080p H264 [ArMor].mkv
Format                                   : Matroska
Format version                           : Version 4
File size                                : 3.69 GiB
Duration                                 : 1 h 36 min
Overall bit rate                         : 5 465 kb/s
Encoded date                             : UTC 2020-10-15 16:43:52
Writing application                      : mkvmerge v15.0.0 ('Duel with the Devil') 64-bit
Writing library                          : libebml v1.3.5 + libmatroska v1.4.5 / Lavf58.29.100

Video
ID                                       : 1
Format                                   : AVC
Format/Info                              : Advanced Video Codec
Format profile                           : [email protected]
Format settings                          : CABAC / 4 Ref Frames
Format settings, CABAC                   : Yes
Format settings, Reference frames        : 4 frames
Codec ID                                 : V_MPEG4/ISO/AVC
Duration                                 : 1 h 36 min
Bit rate                                 : 4 567 kb/s
Width                                    : 1 920 pixels
Height                                   : 816 pixels
Display aspect ratio                     : 2.35:1
Frame rate mode                          : Constant
Frame rate                               : 23.976 (24000/1001) FPS
Color space                              : YUV
Chroma subsampling                       : 4:2:0
Bit depth                                : 8 bits
Scan type                                : Progressive
Bits/(Pixel*Frame)                       : 0.122
Stream size                              : 3.09 GiB (84%)
Writing library                          : x264 core 157 r2935 545de2f
Encoding settings                        : cabac=1 / ref=2 / deblock=1:0:0 / analyse=0x1:0x111 / me=hex / subme=6 / psy=1 / psy_rd=1.00:0.00 / mixed_ref=1 / me_range=16 / chroma_me=1 / trellis=1 / 8x8dct=0 / cqm=0 / deadzone=21,11 / fast_pskip=1 / chroma_qp_offset=-2 / threads=18 / lookahead_threads=3 / sliced_threads=0 / nr=0 / decimate=1 / interlaced=0 / bluray_compat=0 / constrained_intra=0 / bframes=3 / b_pyramid=2 / b_adapt=1 / b_bias=0 / direct=1 / weightb=1 / open_gop=0 / weightp=1 / keyint=240 / keyint_min=24 / scenecut=40 / intra_refresh=0 / rc_lookahead=30 / rc=crf / mbtree=1 / crf=20.5 / qcomp=0.60 / qpmin=0 / qpmax=69 / qpstep=4 / vbv_maxrate=20000 / vbv_bufsize=25000 / crf_max=0.0 / nal_hrd=none / filler=0 / ip_ratio=1.40 / aq=1:1.00
Default                                  : Yes
Forced                                   : No
Color range                              : Limited
Color primaries                          : BT.709
Transfer characteristics                 : BT.709
Matrix coefficients                      : BT.709

Audio #1
ID                                       : 2
Format                                   : AC-3
Format/Info                              : Audio Coding 3
Commercial name                          : Dolby Digital
Codec ID                                 : A_AC3
Duration                                 : 1 h 36 min
Bit rate mode                            : Constant
Bit rate                                 : 448 kb/s
Channel(s)                               : 6 channels
Channel layout                           : L R C LFE Ls Rs
Sampling rate                            : 48.0 kHz
Frame rate                               : 31.250 FPS (1536 SPF)
Compression mode                         : Lossy
Stream size                              : 310 MiB (8%)
Title                                    : WEBDL EAC3
Language                                 : Italian
Service kind                             : Complete Main
Default                                  : Yes
Forced                                   : No

Audio #2
ID                                       : 3
Format                                   : AC-3
Format/Info                              : Audio Coding 3
Commercial name                          : Dolby Digital
Codec ID                                 : A_AC3
Duration                                 : 1 h 36 min
Bit rate mode                            : Constant
Bit rate                                 : 448 kb/s
Channel(s)                               : 6 channels
Channel layout                           : L R C LFE Ls Rs
Sampling rate                            : 48.0 kHz
Frame rate                               : 31.250 FPS (1536 SPF)
Compression mode                         : Lossy
Stream size                              : 310 MiB (8%)
Title                                    : DTS
Language                                 : English
Service kind                             : Complete Main
Default                                  : No
Forced                                   : No


YouTube Video:
Category:Movies
Language:Italian  Italian
Total Size:3.69 GB
Info Hash:6D32C371CD96909721097B4030242E4D85F97227
Added By:ArMor1 Verified Uploader
Date Added:2020-10-17 04:25:36
Torrent Status:Torrent Verified


Ratings:Not Yet Rated (Log in to rate it)


Tracker:
udp://tracker.coppersurfer.tk:6969/announce

This Torrent also has backup trackers
URLSeedersLeechersCompleted
udp://tracker.coppersurfer.tk:6969/announce000
udp://tracker.opentrackr.org:1337/announce000
udp://tracker.leechers-paradise.org:6969/announce000
udp://tracker.zer0day.to:1337/announce000
udp://eddie4.nl:6969/announce000
udp://9.rarbg.me:2790/announce000
udp://9.rarbg.to:2730/announce000
udp://9.rarbg.com:2710/announce000
udp://tracker.pirateparty.gr:6969/announce000
udp://p4p.arenabg.com:1337/announce000
http://ipv4.tracker.harry.lu/announce000
http://ipv4.tracker.harry.lu:80/announce000
http://t.nyaatracker.com/announce000
http://t.nyaatracker.com:80/announce000
http://tracker.torrentyorg.pl:80/announce000


File List: 





Comments
No comments still posted