Login
Username:
Password:
Remember Me:
[Signup]
[Recover Account]
Friends
BTScene
Friendly site

Free Courses Online
Friendly site

Anime RG
Friendly site

KaranPC
Friendly site

P2PDL.com
Friendly site

Free Tutorials & Courses
Friendly site
Torrent Details For "The Last Man 2018 HC HDRip x264 AAC [MW]"

The Last Man 2018 HC HDRip x264 AAC [MW]

To download this torrent, you need a BitTorrent client: Vuze or BTGuard
Download this torrent
Download using Magnet Link

Direct Download - no client needed

Download Faster - High Speed Download

Health:
Seeds: 1,302
Leechers: 924
Completed: 4,164 
Last Checked: 11-07-2018 21:33:40

Uploader Reputation points : 3402
External: Torrent




Write a Review for the Uploader:   15   Say Thanks with one good review:
Share on Facebook


Details
Name:The Last Man 2018 HC HDRip x264 AAC [MW]
Description:




General
Format                                   : Matroska
Format version                           : Version 4 / Version 2
File size                                : 891 MiB
Duration                                 : 1 h 41 min
Overall bit rate                         : 1 225 kb/s

Video
ID                                       : 1
Format                                   : AVC
Format/Info                              : Advanced Video Codec
Format profile                           : [email protected]
Format settings                          : CABAC / 5 Ref Frames
Format settings, CABAC                   : Yes
Format settings, RefFrames               : 5 frames
Codec ID                                 : V_MPEG4/ISO/AVC
Duration                                 : 1 h 41 min
Bit rate                                 : 1 100 kb/s
Width                                    : 662 pixels
Height                                   : 304 pixels
Display aspect ratio                     : 2.2:1
Frame rate mode                          : Constant
Frame rate                               : 24.000 FPS
Color space                              : YUV
Chroma subsampling                       : 4:2:0
Bit depth                                : 8 bits
Scan type                                : Progressive
Bits/(Pixel*Frame)                       : 0.228
Stream size                              : 796 MiB (89%)
Writing library                          : x264 core 155 r2901 7d0ff22
Default                                  : Yes
Forced                                   : No

Audio
ID                                       : 2
Format                                   : AAC
Format/Info                              : Advanced Audio Codec
Format profile                           : LC
Codec ID                                 : A_AAC-2
Duration                                 : 1 h 41 min
Bit rate                                 : 128 kb/s
Channel(s)                               : 2 channels
Channel positions                        : Front: L R
Sampling rate                            : 48.0 kHz
Frame rate                               : 46.875 FPS (1024 SPF)
Compression mode                         : Lossy
Stream size                              : 93.1 MiB (10%)
Default                                  : Yes
Forced                                   : No


Click To Enlarge Image








YouTube Video:
Category:Movies
Language:English  English
Total Size:890.63 MB
Info Hash:EE5DF253FFE0EAE9C692299088077FE3D5F87E8F
Added By:MovieFreak Verified UploaderMovie Pirate
Date Added:10-07-2018 23:04:06
Torrent Status:Torrent Verified


Ratings:Not Yet Rated (Log in to rate it)


Tracker:
udp://tracker.coppersurfer.tk:6969/announce

This Torrent also has backup trackers
URLSeedersLeechersCompleted
udp://tracker.coppersurfer.tk:6969/announce12388449
udp://tracker.pirateparty.gr:6969/announce12388449
udp://tracker.coppersurfer.tk:6969/announce12388449
udp://tracker.leechers-paradise.org:6969/announce11074362
udp://eddie4.nl:6969/announce11074362
udp://tracker.tiny-vps.com:6969/announce8363165
udp://9.rarbg.me:2800/announce8465344
udp://9.rarbg.to:2720/announce8465344
udp://public.popcorn-tracker.org:6969/announce8357162
udp://open.stealth.si:80/announce000
udp://tracker.vanitycore.co:6969/announce8055152
udp://tracker.opentrackr.org:1337/announce7959202
udp://bt.firebit.co.uk:6969/announce11074362
udp://shadowshq.yi.org:6969/announce11074362


File List: 





Comments
No comments still posted